.
Авторизация | Регистрация
Хочешь лучшие торренты? Добавь свой email!
Добавить




Паук (2015) WEB-DLRip от GeneralFilm торрент скачать бесплатно

Опубликовал: Админ | Дата: 20-10-2015, 05:00 | Просмотров: 137



Детально о кино
Русское название: Паук (Гознак)
Создали в: 2015
Категория жанра: Детектив, криминал, триллер
Главный режиссер: Евгений Звездаков

Актеры
Андрей Смоляков, Марина Александрова, Юрий Чурсин, Константин Демидов, Владимир Вольнов, Леся Кудряшова, Вячеслав Митягин, Ярослава Базаева, Александра Ревенко, Владимир Юматов.

Сюжет фильма

На дворе 1967 год, в городе складывается тяжелая обстановка, а все из-за того, что на границах памятника отца революции найдены трупы манекенщиц.
Снималось в: Россия
Время просмотра: 1 х ~ 00: 50: 00
Язык: Русский
Файл
Качество фильма: WEB-DLRip
Информация о видео: XviD, ~ 1350 Кбит/с, 704x400
Информация о звуке: MP3, 2 ch, 128 Кбит/с
МедиаИнфо
Общее
Полное имя : Pauk.(08.serij.iz.08).2015.XviD.WEB-DLRip.by.GeneralFilmSerija.01.avi
Формат : AVI
Формат/Информация : Audio Video Interleave
Размер файла : 555 Мбайт
Продолжительность : 52 м.
Общий поток : 1489 Кбит/сек
Программа кодирования : VirtualDubMod 1.5.10.3 | www.virtualdub-fr.org || (build 2550/release)
Библиотека кодирования : VirtualDubMod build 2550/release
Видео
Идентификатор : 0
Формат : MPEG-4 Visual
Профиль формата : Advanced Simple@L5
Параметр BVOP формата : 1
Параметр QPel формата : Нет
Параметр GMC формата : Без точки перехода
Параметр матрицы формата : Выборочная
Идентификатор кодека : XVID
Идентификатор кодека/Подсказка : XviD
Продолжительность : 52 м.
Битрейт : 1352 Кбит/сек
Ширина : 704 пикселя
Высота : 400 пикселей
Соотношение сторон : 16: 9
Частота кадров : 25, 000 кадров/сек
Цветовое пространство : YUV
Субдискретизация насыщенности : 4: 2: 0
Битовая глубина : 8 бит
Тип развёртки : Прогрессивная
Метод сжатия : С потерями
Бит/(Пиксели*Кадры) : 0.192
Размер потока : 504 Мбайт (91%)
Библиотека кодирования : XviD 73
Аудио
Идентификатор : 1
Формат : MPEG Audio
Версия формата : Version 1
Профиль формата : Layer 3
Идентификатор кодека : 55
Идентификатор кодека/Подсказка : MP3
Продолжительность : 52 м.
Вид битрейта : Постоянный
Битрейт : 128 Кбит/сек
Каналы : 2 канала
Частота : 48, 0 КГц
Метод сжатия : С потерями
Размер потока : 47, 7 Мбайт (9%)
Выравнивание : Соединение по промежуткам
Продолжительность промежутка : 40 мс. (1, 00 видеокадр)
Время предзагрузки промежутка : 504 мс.
Библиотека кодирования : LAME3.99r
Залил: vsobbol
Размер скачиваемого торрента: 554.94 MB (581892096 Bytes)


Паук (2015) WEB-DLRip от GeneralFilm
загрузка...
Рейтинг →
 (голосов: 1, оценка 5/5, голосовать можно 1 раз )

Другие торренты по теме:

  • Великий Человек-паук / Ultimate Spider-Man (2012-2013) WEB-DLRip-AVC 720p
  • Совершенный Человек-Паук / Ultimate Spider-Man (2012-2013) WEB-DLRip-AVC 720p
  • Совершенный Человек-Паук / Ultimate Spider-Man (2012-2013) ]WEB-DLRip-AVC 720p скачать через торрент бесплатно
  • Совершенный Человек-Паук / Ultimate Spider-Man (2012-2013) WEB-DLRip-AVC 720p
  • Совершенный Человек-Паук / Ultimate Spider-Man (2013) WEB-DLRip
  • Совершенный Человек-Паук / Ultimate Spider-Man (2013) WEB-DLRip от Semak
  • Совершенный Человек-Паук / Ultimate Spider-Man (2013) WEB-DLRip от Semak
  • Великий Человек-паук / Ultimate Spider-Man (2012) WEB-DLRip 720p | L


    • Комментарии (0):

      Информация

      Информация

        Посетители, находящиеся в группе Гости, не могут оставлять комментарии в данной новости.

        ↓ Меню



        ↓ Опрос

        А Вы добавили сайт в закладки?
        Да
        Не


        Top 10 за месяц (Фильмы)