.
Авторизация | Регистрация
» » Зеленый ад / The Green Inferno (2013) WEB-DLRip-AVC | L1 скачать торрент бесплатно




    Зеленый ад / The Green Inferno (2013) WEB-DLRip-AVC | L1 скачать торрент бесплатно

    Опубликовал: Админ | Дата: 22-10-2015, 05:01 | Просмотров: 62



    Детально о кино
    Русское название: Зеленый ад (Людоеды)
    Русское название в мировом прокате: The Green Inferno
    Создали в: 2013
    Категория жанра: Ужасы, приключения
    Главный режиссер: Элай Рот

    Актеры
    Лоренца Иззо, Ариэль Леви, Дэрил Сабара, Кирби Блисс Блэнтон, Магда Апанович, Скай Феррейра, Николас Мартинез, Аарон Барнс, Игнасия Алламанд, Рамон Льяо

    Сюжет фильма

    Чтобы спасти племена Амазонки от вымирания из-за наступления цивилизации, группа из нескольких нью-йоркских студентов отправляется в джунгли Перу. Правда, возвращаясь домой, ребята попадают прямо, можно сказать, в лапы к тем, кого собирались защищать. И все из-за того, что самолет, в котором они направлялись в Америку, потерпел крушение из-за того, что сломался двигатель. Не все выжили, но тем, кому судьба дала еще один шанс, не позавидуешь. Им придется узнать страшную тайну индейского племени. Оказывается, они не только лишают жизни людей, но и съедают их.

    Снималось в: Чили, США, Worldview Entertainment, Dragonfly Entertainment, Sobras International Pictures
    Время просмотра: 01: 40: 38
    Перевод текста фильма: Enigma
    Озвучка: Любительская одноголосая (xixidok)
    Файл
    Качество фильма: WEB-DLRip-AVC
    Информация о видео: High@L4.1, ~1872 Кбит/с, 1020x424
    Информация о звуке: AC3, 2 ch ~ 192 Kb/s

    M/I
    General
    Unique ID : 191624687453880849992462581182113231014 (0x90299286855FA37CC2601A140BC3B0A6)
    Complete name : D: Зеленый ад.(2013).WEB-DLRIP_AVC.L1.-=DoMiNo=-.mkv
    Format : Matroska
    Format version : Version 4/Version 2
    File size : 1.45 GiB
    Duration : 1h 40mn
    Overall bit rate : 2 067 Kbps
    Movie name : Зеленый ад
    Writing application : XviD4PSP 7.0.177
    Writing library : Lavf56.25.101
    ORIGINAL_TITLE : The Green Inferno
    DATE : 2013
    GENRE : ужасы, приключения
    ENCODING_INFO : MATROSKA, WEBM MKV/H264 X264 VBR-2P 1872kbps Custom/AC3 COPY
    SYNOPSIS : Группа студентов и активистов путешествует по Амазонке, их цель ? спасти вымирающее племя коренных жителей сельвы. Но авиакатастрофа рушит их планы ? студенты становятся заложниками племени людоедов, которое они так защищали.
    ITUNEXTC : mpaa|R|400|
    ACTORS : Лоренца Иззо, Ариэль Леви, Дэрил Сабара, Кирби Блисс Блэнтон, Магда Апанович, Скай Феррейра, Николас Мартинез, Аарон Барнс, Игнасия Алламанд, Рамон Льяо, показать всех
    DIRECTOR : Элай Рот
    PRODUCER : Мигель Асенсио, Молли Коннерс, Николас Лопес
    WRITER : Гильермо Амоедо, Элай Рот
    COUNTRY : Чили, США
    RATING : 6.154
    IMDB_RATING : 5.80
    Language : und
    FILENAME : cover.png
    Attachements : cover.png
    Video
    ID : 1
    Format : AVC
    Format/Info : Advanced Video Codec
    Format profile : High@L4.1
    Format settings, CABAC : Yes
    Format settings, ReFrames : 12 frames
    Codec ID : V_MPEG4/ISO/AVC
    Duration : 1h 40mn
    Bit rate : 1 872 Kbps
    Width : 1 020 pixels
    Height : 424 pixels
    Display aspect ratio : 2.40: 1
    Frame rate mode : Constant
    Frame rate : 23.976 fps
    Color space : YUV
    Chroma subsampling : 4: 2: 0
    Bit depth : 8 bits
    Scan type : Progressive
    Bits/(Pixel*Frame) : 0.181
    Stream size : 1.29 GiB (89%)
    Title : Зеленый ад/The Green Inferno (2013) WEB-DLRIP_AVC.-=DoMiNo=-
    Writing library : x264 core 148 r2597M e86f3a1
    Encoding settings : cabac=1/ref=12/deblock=1: -3: -3/analyse=0x3: 0x133/me=umh/subme=9/psy=1/psy_rd=1.00: 0.10/mixed_ref=1/me_range=16/chroma_me=1/trellis=2/8x8dct=1/cqm=0/deadzone=21, 11/fast_pskip=1/chroma_qp_offset=-3/threads=5/lookahead_threads=1/sliced_threads=0/nr=0/decimate=1/interlaced=0/bluray_compat=0/constrained_intra=0/bframes=10/b_pyramid=2/b_adapt=2/b_bias=0/direct=3/weightb=1/open_gop=0/weightp=2/keyint=230/keyint_min=23/scenecut=40/intra_refresh=0/rc=2pass/mbtree=0/bitrate=1872/ratetol=1.0/qcomp=0.60/qpmin=0/qpmax=69/qpstep=4/cplxblur=20.0/qblur=0.5/ip_ratio=1.40/pb_ratio=1.30/aq=1: 1.00
    Language : English
    Default : Yes
    Forced : No
    Color range : Limited
    Color primaries : BT.709
    Transfer characteristics : BT.709
    Matrix coefficients : BT.709
    Audio
    ID : 2
    Format : AC-3
    Format/Info : Audio Coding 3
    Mode extension : CM (complete main)
    Format settings, Endianness : Big
    Codec ID : A_AC3
    Duration : 1h 40mn
    Bit rate mode : Constant
    Bit rate : 192 Kbps
    Channel(s) : 2 channels
    Channel positions : Front: L R
    Sampling rate : 48.0 KHz
    Bit depth : 32 bits
    Compression mode : Lossy
    Stream size : 138 MiB (9%)
    Title : Любительский одноголосый (xixidok)
    Language : Russian
    Default : Yes
    Forced : No
    Menu
    00: 00: 00.000 : : Chapitre 01
    00: 10: 00.000 : : Chapitre 02
    00: 20: 00.000 : : Chapitre 03
    00: 30: 00.000 : : Chapitre 04
    00: 40: 00.000 : : Chapitre 05
    00: 50: 00.000 : : Chapitre 06
    01: 00: 00.000 : : Chapitre 07
    01: 10: 00.000 : : Chapitre 08
    01: 20: 00.000 : : Chapitre 09
    01: 30: 00.000 : : Chapitre 10
    Скриншоты


    Онлайн видео Зеленый ад


    Размер скачиваемого торрента: 1.45 GB (1560355474 Bytes)

    Зеленый ад/The Green Inferno (2013) WEB-DLRip-AVC | L1
    загрузка...
    Рейтинг →
     (голосов: 1, оценка 5/5, голосовать можно 1 раз )

    Другие торренты по теме:

  • OST - Зеленый шершень / The Green Hornet Soundtrack (2011) MP3 торрент скачать бесплатно
  • OST - Зеленая миля / The Green Mile Soundtrack (1999) MP3 торрент скачать бесплатно
  • Зеленый Фонарь / Green Lantern (2011) BDRip от X-Men | Расширенная версия / Extended Cut торрент скачать бесплатно
  • Зеленая миля / The Green Mile (1999) HDRip-AVC торрент скачать бесплатно
  • Энн из зеленых крыш / Ann of green Gables (1985) DVDRip торрент скачать бесплатно
  • Зеленый Фонарь / Green Lantern (2011) BDRip от HQCLUB | Extended Cut торрент скачать бесплатно
  • Энн из Зеленых крыш 2: Продолжение / Anne of Green Gables: The Sequel (1987) DVDRip торрент скачать бесплатно
  • Зеленое крыло / Green Wing (2004 - 2006) DVDRip от Brazzass торрент скачать бесплатно


    • Комментарии (0):

      Информация

      Информация

        Посетители, находящиеся в группе Гости, не могут оставлять комментарии в данной новости.

        ↓ Меню



        ↓ Опрос

        А Вы добавили сайт в закладки?
        Да
        Не


        Top 10 за неделю (Фильмы)