.
Авторизация | Регистрация
Хочешь лучшие торренты? Добавь свой email!
Добавить
» » Врата тьмы / Pay the Ghost (2015) WEB-DLRip от AleksSin | iTunes торрент скачать бесплатно




    Врата тьмы / Pay the Ghost (2015) WEB-DLRip от AleksSin | iTunes торрент скачать бесплатно

    Опубликовал: Админ | Дата: 23-10-2015, 05:01 | Просмотров: 127



    Детально о кино
    Русское название: Врата тьмы
    Русское название в мировом прокате: Pay the Ghost
    Создали в: 2015
    Категория жанра: ужасы, триллер
    Главный режиссер: Ули Эдель

    Актеры
    Николас Кейдж, Сара Уэйн Каллис, Алекс Маллари-мл., Вероника Феррес, Лирик Бент, Эрин Бойес, Джек Фултон, София Уэллс, Элизабет Джинна ле Ру, Марк Ирвингсен, Максвелл МакКейб-Локос, Хуан Карлос Велис, Лорен Битти

    Сюжет фильма

    Существует древнее поверье, что раз в год, на Хэллоуин, открываются врата между миром живых и миром мертвых. В этот день зло практически всесильно…
    Во время ночного праздничного парада в Нью-Йорке у профессора Майка Кола бесследно пропадает его маленький сын. Полиции не удается найти ребенка, однако после собственного расследования отец узнает, что некое мощное древнее проклятие забирает детей каждый год. Чтобы вернуть себе своего сына, у него есть только один шанс — в ночь на Хэллоуин отправиться по ту сторону врат тьмы….

    Снималось в: США
    Киностудия: Midnight Kitchen Productions, Voltage Films
    Время просмотра: 01: 33: 53
    Перевод текста: Дублированный (iTunes)
    Файл
    Кодек для видео: AVI (XviD)
    Качество фильма: WEB-DLRip (Исх. WEB-DL 1080p)
    Информация о видео: 720x304 (2.37: 1), 24.000 fps, XviD build 73 ~1827 kbps avg, 0.35 bit/pixel
    Audio: 48 kHz, AC3 Dolby Digital, 3/2 (L, C, R, l, r) + LFE ch, ~384 kbps
    Субтитры: нет
    Семпл
    MediaInfo

    Общее
    Полное имя : S: ФильмыВрата тьмы. 2015. WEB-DLRip. (AleksSin).avi
    Формат : AVI
    Формат/Информация : Audio Video Interleave
    Размер файла : 1, 46 Гбайт
    Продолжительность : 1 ч. 33 м.
    Общий поток : 2220 Кбит/сек
    Программа кодирования : VirtualDubMod 1.5.10.3 | www.virtualdub-fr.org || (build 2550/release)
    Библиотека кодирования : VirtualDubMod build 2550/release
    Видео
    Идентификатор : 0
    Формат : MPEG-4 Visual
    Профиль формата : Advanced Simple@L5
    Параметр BVOP формата : 1
    Параметр QPel формата : Нет
    Параметр GMC формата : Без точки перехода
    Параметр матрицы формата : Выборочная
    Идентификатор кодека : XVID
    Идентификатор кодека/Подсказка : XviD
    Продолжительность : 1 ч. 33 м.
    Битрейт : 1827 Кбит/сек
    Ширина : 720 пикселей
    Высота : 304 пикселя
    Соотношение сторон : 2, 35: 1
    Частота кадров : 24, 000 кадра/сек
    Цветовое пространство : YUV
    Субдискретизация насыщенности : 4: 2: 0
    Битовая глубина : 8 бит
    Тип развёртки : Прогрессивная
    Метод сжатия : С потерями
    Бит/(Пиксели*Кадры) : 0.348
    Размер потока : 1, 20 Гбайт (82%)
    Библиотека кодирования : XviD 73
    Аудио
    Идентификатор : 1
    Формат : AC-3
    Формат/Информация : Audio Coding 3
    Расширение режима : CM (complete main)
    Параметр Endianness формата : Big
    Идентификатор кодека : 2000
    Продолжительность : 1 ч. 33 м.
    Вид битрейта : Постоянный
    Битрейт : 384 Кбит/сек
    Каналы : 6 каналов
    Расположение каналов : Front: L C R, Side: L R, LFE
    Частота : 48, 0 КГц
    Битовая глубина : 16 бит
    Метод сжатия : С потерями
    Размер потока : 258 Мбайт (17%)
    Выравнивание : Разделение по промежуткам
    Продолжительность промежутка : 42 мс. (1, 00 видеокадр)
    Время предзагрузки промежутка : 500 мс.

    Скриншоты

    Релиз подготовил:
    Залил: *AleksSin*

    Онлайн видео Врата тьмы


    Размер скачиваемого торрента: 1.46 GB (1563396096 Bytes)

    Врата тьмы/Pay the Ghost (2015) WEB-DLRip от AleksSin | iTunes
    загрузка...
    Рейтинг →
     (голосов: 1, оценка 3/5, голосовать можно 1 раз )

    Другие торренты по теме:

  • Врата тьмы / Pay the Ghost (2015) WEB-DLRip от AleksSin | L2
  • Врата тьмы / Pay the Ghost (2015) WEB-DL 1080p | iTunes
  • Врата тьмы / Pay the Ghost (2015) WEB-DLRip от Scarabey | iTunes
  • Врата тьмы / Pay the Ghost (2015) Blu-ray 1080p от NovaLan | iTunes
  • Врата тьмы / Pay the Ghost / 2015 / ДБ / HDRip
  • Врата тьмы / Pay the Ghost / 2015 / ДБ / Blu-Ray Remux (1080p)
  • Врата тьмы / Pay the Ghost / 2015 / ДБ / BDRip (720p)
  • Врата тьмы / Pay the Ghost (2015) BDRip-AVC от HELLYWOOD | iTunes


    • Комментарии (0):

      Информация

      Информация

        Посетители, находящиеся в группе Гости, не могут оставлять комментарии в данной новости.

        ↓ Меню



        ↓ Опрос

        А Вы добавили сайт в закладки?
        Да
        Не


        Top 10 за месяц (Фильмы)