.
Авторизация | Регистрация
» » Шанхайские рыцари / Shanghai Knights (2003) BDRip 720р от SuperMin | D , P скачать торрент бесплатно




    Шанхайские рыцари / Shanghai Knights (2003) BDRip 720р от SuperMin | D , P скачать торрент бесплатно

    Опубликовал: Админ | Дата: 23-10-2015, 05:01 | Просмотров: 99



    Детально о кино
    Русское название: Шанхайские рыцари
    Русское название в мировом прокате: Shanghai Knights
    Создали в: 2003
    Категория жанра: боевик, комедия, приключения, вестерн
    Главный режиссер: Дэвид Добкин

    Актеры
    Джеки Чан, Оуэн Уилсон, Фэнн Вонг, Аарон Джонсон, Эйдан Джиллен, Том Фишер, Донни Ен, Оливер Коттон, Элисон Кинг, Константин Грегори, Джонатан Харви, Ричард Хаас

    Сюжет фильма

    После приручения Дикого Запада в комедии Шанхайский полдень, Чон Ванг и Рой О;Баннон - опять в седле, но на сей раз совсем в другом месте - они оказались в цивилизованном Лондоне в продолжении этого фильма, Шанхайских Рыцарях.
    Когда китайский предатель убивает отца Чона и убегает в Англию, Чон и Рой отправляются за ним в Лондон с планами мести. Сестра Чона, Лин, хочет того же, и раскрывает всемирный заговор против королевской семьи, но почти никто не верит ей.
    С помощью любезного инспектора Скотланд Ярда и 10-летнего уличного мальчишки, акробатический Чон дает Викторианской Англии хороший пинок, поскольку он одновременно пытается мстить за смерть своего отца и держать склонного к флирту Роя подальше от сестры.

    Снималось в: США, Гонконг
    Время просмотра: 01: 54: 20
    Перевод текста: Дубляж + Многоголосый (закадровый)
    Файл
    Кодек для видео: H.264
    Качество фильма: BDRip 720р от SuperMin
    Информация о видео: 1280x544 (2.35: 1), 5320 kbps, 23.976 fps
    Информация о звуке:
    Дубляж (AC-3, 2ch, 192 kbps) - (компания ;Невафильм;)
    Многоголосый (AC-3, 6ch, 448 kbps)
    Субтитры: Русские, английские
    Лог
    x264 info: frame I: 2530 Avg QP: 17.18 size: 96897
    x264 info: frame P: 89842 Avg QP: 19.27 size: 39533
    x264 info: frame B: 72123 Avg QP: 22.22 size: 12024
    x264 info: consecutive B-frames: 22.4% 53.3% 13.9% 8.5% 1.4% 0.2% 0.2% 0.0% 0.1%
    encoded 164495 frames, 1.56 fps, 5438.55 kb/s

    MI
    Video
    ID : 1
    Format : AVC
    Format/Info : Advanced Video Codec
    Format profile : High@L4.1
    Format settings, CABAC : Yes
    Format settings, ReFrames : 9 frames
    Codec ID : V_MPEG4/ISO/AVC
    Duration : 1h 54mn
    Bit rate : 5 320 Kbps
    Width : 1 280 pixels
    Height : 544 pixels
    Display aspect ratio : 2.35: 1
    Frame rate mode : Constant
    Frame rate : 23.976 fps
    Color space : YUV
    Chroma subsampling : 4: 2: 0
    Bit depth : 8 bits
    Scan type : Progressive
    Bits/(Pixel*Frame) : 0.319
    Stream size : 4.25 GiB (87%)
    Writing library : x264 core 146 r2538 121396c
    Encoding settings : cabac=1/ref=9/deblock=1: -1: -1/analyse=0x3: 0x113/me=umh/subme=11/psy=1/psy_rd=1.00: 0.00/mixed_ref=1/me_range=24/chroma_me=1/trellis=2/8x8dct=1/cqm=0/deadzone=21, 11/fast_pskip=0/chroma_qp_offset=-2/threads=3/lookahead_threads=1/sliced_threads=0/nr=0/decimate=1/interlaced=0/bluray_compat=0/constrained_intra=0/bframes=8/b_pyramid=2/b_adapt=1/b_bias=0/direct=3/weightb=1/open_gop=0/weightp=2/keyint=240/keyint_min=22/scenecut=40/intra_refresh=0/rc_lookahead=40/rc=crf/mbtree=0/crf=19.0/qcomp=0.60/qpmin=0/qpmax=69/qpstep=4/vbv_maxrate=62500/vbv_bufsize=78125/crf_max=0.0/nal_hrd=none/filler=0/ip_ratio=1.40/pb_ratio=1.30/aq=1: 1.00
    Default : Yes
    Forced : No
    Audio #1
    ID : 2
    Format : AC-3
    Format/Info : Audio Coding 3
    Mode extension : CM (complete main)
    Format settings, Endianness : Big
    Codec ID : A_AC3
    Duration : 1h 54mn
    Bit rate mode : Constant
    Bit rate : 192 Kbps
    Channel(s) : 2 channels
    Channel positions : Front: L R
    Sampling rate : 48.0 KHz
    Compression mode : Lossy
    Stream size : 157 MiB (3%)
    Title : Дубляж
    Language : Russian
    Default : Yes
    Forced : No
    Audio #2
    ID : 3
    Format : AC-3
    Format/Info : Audio Coding 3
    Mode extension : CM (complete main)
    Format settings, Endianness : Big
    Codec ID : A_AC3
    Duration : 1h 54mn
    Bit rate mode : Constant
    Bit rate : 448 Kbps
    Channel(s) : 6 channels
    Channel positions : Front: L C R, Side: L R, LFE
    Sampling rate : 48.0 KHz
    Compression mode : Lossy
    Stream size : 366 MiB (7%)
    Title : Многоголосый
    Language : Russian
    Default : No
    Forced : No
    Text #1
    ID : 4
    Format : UTF-8
    Codec ID : S_TEXT/UTF8
    Codec ID/Info : UTF-8 Plain Text
    Language : Russian
    Default : Yes
    Forced : No
    Text #2
    ID : 5
    Format : UTF-8
    Codec ID : S_TEXT/UTF8
    Codec ID/Info : UTF-8 Plain Text
    Language : English
    Default : No
    Forced : No

    Скриншоты

    Залил: SuperMin

    Онлайн видео Шанхайские рыцари


    Размер скачиваемого торрента: 4.86 GB (5214998042 Bytes)

    Шанхайские рыцари/Shanghai Knights (2003) BDRip 720р от SuperMin | D , P
    загрузка...
    Рейтинг →
     (голосов: 1, оценка 4/5, голосовать можно 1 раз )

    Другие торренты по теме:

  • Шанхайские рыцари / Shanghai Knights (2003) HDRip | Лицензия торрент скачать бесплатно
  • Шанхайские рыцари / Shanghai Knights (2003) HDRip от Scarabey | Р скачать через торрент бесплатно


    • Комментарии (0):

      Информация

      Информация

        Посетители, находящиеся в группе Гости, не могут оставлять комментарии в данной новости.

        ↓ Меню



        ↓ Опрос

        А Вы добавили сайт в закладки?
        Да
        Не


        Top 10 за неделю (Фильмы)