.
Авторизация | Регистрация
Хочешь лучшие торренты? Добавь свой email!
Добавить
» » Смертельный расклад / Total western (2000) DVDRip-AVC | P торрент скачать бесплатно




    Смертельный расклад / Total western (2000) DVDRip-AVC | P торрент скачать бесплатно

    Опубликовал: Админ | Дата: 24-10-2015, 05:01 | Просмотров: 121



    Детально о кино
    Русское название: Смертельный расклад
    Русское название в мировом прокате: Total western
    Создали в: 2000
    Категория жанра: Боевик, триллер, драма, криминал
    Главный режиссер: Эрик Рошан

    Актеры
    Самюэль Ле Бьян, Жан-Пьер Кальфон, Жан-Франсуа Стевенен, Каена Саиги, Алексия Стреси, Юсеф Диавара, Оссини Эмбарек, Кристоф Эмон, Марк Андреони, Филипп Хорсан, Жан-Мари Винлин, Катрин Осмален, Марко Принц, Эммануель Авена, Джо Престиа, Альберт Голдберг, Никки Нод, Паскаль Геган, Патрик Ромби, Пол Деко, Филипп Амброзини, Марсаль Одон, Саид Серрари

    Сюжет фильма

    Жерар Бедекарра, которого все называют просто БД — правая рука босса одной из парижских банд. У него было очень простое задание — встретиться с людьми из другой банды и обменять наркотики на деньги. Но все пошло не так, как надо. Результат стрелки — пять трупов, несколько килограммов наркотиков и 350 тысяч долларов. И все это досталось тому единственному, кто остался в живых. То есть БД, которому теперь срочно нужно где-то спрятаться. И он находит такое место — исправительное заведение для несовершеннолетних правонарушителей, расположенное вдали от Парижа, в провинциальной глуши. Но братки из обкраденной банды, которых боится даже полиция, находят БД и здесь…

    Снималось в: Франция
    Киностудия: Canal+, Gimages, Lazennec Films, Studio Images 6, Union Generale Cinematographique (UGC)
    Время просмотра: 01: 40: 35
    Перевод текста: Профессиональный многоголосый закадровый
    Файл
    Кодек для видео: h.264
    Качество фильма: DVDRip (AVC)
    Информация о видео: MPEG-4 AVC, 2332 Кбит/с, 992x432, 25.000 кадр/с
    Информация о звуке:
    • №1: Русский (AC3, 6 ch, 384 Кбит/с) | Профессиональный многоголосый
    • №2: Французский (AC3, 6 ch, 384 Кбит/с)
    Семпл
    Скриншоты






    MediaInfo

    Полное имя : D: Smertelniy.rasklad.2000.x264.DVDRip.(AVC).Marvel.mkv
    Формат : Matroska
    Версия формата : Version 4/Version 2
    Размер файла : 2, 18 Гбайт
    Продолжительность : 1 ч. 40 м.
    Общий поток : 3101 Кбит/сек
    Название фильма : Total western (2000) -=Marvel=-
    Дата кодирования : UTC 2015-10-23 10: 55: 47
    Программа кодирования : mkvmerge v7.3.0 (;Nouages;) 32bit built on Oct 22 2014 18: 44: 01
    Библиотека кодирования : libebml v1.3.0 + libmatroska v1.4.1
    DURATION : 01: 40: 35.168000000
    NUMBER_OF_FRAMES : 188599
    NUMBER_OF_BYTES : 289688064
    _STATISTICS_WRITING_APP : mkvmerge v7.3.0 (;Nouages;) 32bit built on Oct 22 2014 18: 44: 01
    _STATISTICS_WRITING_DATE_UTC : 2015-10-23 10: 55: 47
    _STATISTICS_TAGS : BPS DURATION NUMBER_OF_FRAMES NUMBER_OF_BYTES
    Видео
    Идентификатор : 1
    Формат : AVC
    Формат/Информация : Advanced Video Codec
    Профиль формата : High@L4.1
    Параметр CABAC формата : Да
    Параметр ReFrames формата : 8 кадров
    Идентификатор кодека : V_MPEG4/ISO/AVC
    Продолжительность : 1 ч. 40 м.
    Битрейт : 2332 Кбит/сек
    Ширина : 992 пикселя
    Высота : 432 пикселя
    Соотношение сторон : 2, 25: 1
    Частота кадров : 25, 000 кадров/сек
    Цветовое пространство : YUV
    Субдискретизация насыщенности : 4: 2: 0
    Битовая глубина : 8 бит
    Тип развёртки : Прогрессивная
    Бит/(Пиксели*Кадры) : 0.218
    Размер потока : 1, 60 Гбайт (73%)
    Заголовок : Total western (2000)
    Библиотека кодирования : x264 core 130 r2273 b3065e6
    Настройки программы : cabac=1/ref=8/deblock=1: -3: -3/analyse=0x3: 0x133/me=umh/subme=11/psy=1/psy_rd=1.00: 0.00/mixed_ref=1/me_range=48/chroma_me=1/trellis=2/8x8dct=1/cqm=0/deadzone=21, 11/fast_pskip=0/chroma_qp_offset=-2/threads=1/lookahead_threads=1/sliced_threads=0/nr=0/decimate=1/interlaced=0/bluray_compat=0/constrained_intra=0/bframes=8/b_pyramid=2/b_adapt=2/b_bias=0/direct=3/weightb=1/open_gop=0/weightp=2/keyint=250/keyint_min=22/scenecut=40/intra_refresh=0/rc=2pass/mbtree=0/bitrate=2332/ratetol=1.0/qcomp=0.60/qpmin=10/qpmax=51/qpstep=4/cplxblur=20.0/qblur=0.5/ip_ratio=1.40/pb_ratio=1.30/aq=2: 1.00
    Язык : French
    Default : Да
    Forced : Да
    DURATION : 01: 40: 35.200000000
    NUMBER_OF_FRAMES : 150880
    NUMBER_OF_BYTES : 1758721796
    _STATISTICS_WRITING_APP : mkvmerge v7.3.0 (;Nouages;) 32bit built on Oct 22 2014 18: 44: 01
    _STATISTICS_WRITING_DATE_UTC : 2015-10-23 10: 55: 47
    _STATISTICS_TAGS : BPS DURATION NUMBER_OF_FRAMES NUMBER_OF_BYTES
    Аудио #1
    Идентификатор : 2
    Формат : AC-3
    Формат/Информация : Audio Coding 3
    Расширение режима : CM (complete main)
    Параметр Endianness формата : Big
    Идентификатор кодека : A_AC3
    Продолжительность : 1 ч. 40 м.
    Вид битрейта : Постоянный
    Битрейт : 384 Кбит/сек
    Каналы : 6 каналов
    Расположение каналов : Front: L C R, Side: L R, LFE
    Частота : 48, 0 КГц
    Битовая глубина : 16 бит
    Метод сжатия : С потерями
    Размер потока : 276 Мбайт (12%)
    Заголовок : MVO
    Язык : Russian
    Default : Да
    Forced : Да
    Аудио #2
    Идентификатор : 3
    Формат : AC-3
    Формат/Информация : Audio Coding 3
    Расширение режима : CM (complete main)
    Параметр Endianness формата : Big
    Идентификатор кодека : A_AC3
    Продолжительность : 1 ч. 40 м.
    Вид битрейта : Постоянный
    Битрейт : 384 Кбит/сек
    Каналы : 6 каналов
    Расположение каналов : Front: L C R, Side: L R, LFE
    Частота : 48, 0 КГц
    Битовая глубина : 16 бит
    Метод сжатия : С потерями
    Размер потока : 276 Мбайт (12%)
    Заголовок : French
    Язык : French
    Default : Нет
    Forced : Нет
    Аудио #2
    Идентификатор : 3
    Формат : AC-3
    Формат/Информация : Audio Coding 3
    Расширение режима : CM (complete main)
    Параметр Endianness формата : Big
    Идентификатор кодека : A_AC3
    Продолжительность : 1 ч. 31 м.
    Вид битрейта : Постоянный
    Битрейт : 448 Кбит/сек
    Каналы : 6 каналов
    Расположение каналов : Front: L C R, Side: L R, LFE
    Частота : 48, 0 КГц
    Битовая глубина : 16 бит
    Метод сжатия : С потерями
    Размер потока : 293 Мбайт (13%)
    Заголовок : Ang
    Язык : ang
    Default : Нет
    Forced : Нет

    Релиз подготовил:

    Онлайн видео Смертельный расклад


    Размер скачиваемого торрента: 2.18 GB (2339637179 Bytes)

    Смертельный расклад/Total western (2000) DVDRip-AVC | P
    загрузка...
    Рейтинг →
     (голосов: 1, оценка 3/5, голосовать можно 1 раз )

    Другие торренты по теме:

  • Смертельный список / The Hit List (2011) HDRip-AVC от potroks | P
  • Смертельный спуск / Deadly Descent / Abominable Snowman (2012) HDTVRip
  • Смертельный номер / Death Defying Acts (2007) DVD9 от NovaLan
  • Смертельный круиз / Шкипер / Der Skipper (1990) DVD-5 | A
  • Смертельный сон / Dead of Night (1972) DVDRip | L1
  • Смертельный номер / Death Defying Acts (2007) НDRip от Scarabey
  • Смертельный захват / Deadly Outbreak (1995) DVDRip | A
  • Смертельный транс / Death Trance (2005) HDRip от Rulya74 | P2, A скачать через торрент бесплатно


    • Комментарии (0):

      Информация

      Информация

        Посетители, находящиеся в группе Гости, не могут оставлять комментарии в данной новости.

        ↓ Меню



        ↓ Опрос

        А Вы добавили сайт в закладки?
        Да
        Не


        Top 10 за месяц (Фильмы)