.
Авторизация | Регистрация




Динамит / T.N.T. (1997) DVDRip | P, A скачать торрент бесплатно

Опубликовал: Админ | Дата: 25-10-2015, 05:02 | Просмотров: 140



Снималось в: США
Создали в: Interligt Pictures Inc, New Sinema Corporation
Категория жанра: Боевик
Создали в: 1997
Время просмотра: 1: 25: 01
Перевод текста: Профессиональный многоголосый, авторский (Сербин)
Главный режиссер: Роберт Рэдлер

Актеры
Оливье Грюнер, Эрик Робертс, Рэнди Трэвис, Ребекка Стааб, Джадсон Миллс, Сирил О’Райлли, Рональд Лоуренс, Хуан А. Риохас, Бри Блэр, Трэйси Адэлл
Описание: Нэт является членом секретной группы командос, выполняющих по поручению правительства слишком рискованные или щекотливые для обычных отрядов задания. После нескольких миссий для Нэта становится очевидным, что руководство команды каким-то образом связано с наркодельцами, и, уничтожая одних боссов, бойцы играют на ругу другим. Нэт решает уйти со службы. В связи с этим у него возникает одна проблема: первое правило отряда гласит однажды вошел — останешься навсегда. Поэтому в домик на берегу горного озера за ним приходят дюжина незваных гостей. Таких же профессионалов, как и он сам…

Исходник: DVD5 R1
Тип релиза: DVDRip
Контейнер: AVI
Информация о видео: 640x480 (1.33: 1), 25 fps, XviD MPEG-4 ~2031 kbps avg, 0.26 bit/pixel
Информация о звуке 1: 48 kHz, AC3 Dolby Digital, 2/0 (L, R) ch, ~192 kbps (русский)
Информация о звуке 2: 48 kHz, AC3 Dolby Digital, 2/0 (L, R) ch, ~192 kbps (русский)
MediaInfo

Общее
Полное имя : D: ААА2TNT.avi
Формат : AVI
Формат/Информация : Audio Video Interleave
Размер файла : 1, 46 Гбайт
Продолжительность : 1 ч. 26 м.
Общий поток : 2427 Кбит/сек
Программа кодирования : VirtualDubMod 1.5.10.2 (build 2540/release)
Библиотека кодирования : VirtualDubMod build 2540/release
Видео
Идентификатор : 0
Формат : MPEG-4 Visual
Профиль формата : Advanced Simple@L5
Параметр BVOP формата : 2
Параметр QPel формата : Нет
Параметр GMC формата : Без точки перехода
Параметр матрицы формата : Default (MPEG)
Режим смешивания : Сжатый битовый поток
Идентификатор кодека : XVID
Идентификатор кодека/Подсказка : XviD
Продолжительность : 1 ч. 26 м.
Битрейт : 2033 Кбит/сек
Ширина : 640 пикселей
Высота : 480 пикселей
Соотношение сторон : 4: 3
Частота кадров : 25, 000 кадров/сек
Цветовое пространство : YUV
Субдискретизация насыщенности : 4: 2: 0
Битовая глубина : 8 бит
Тип развёртки : Прогрессивная
Метод сжатия : С потерями
Бит/(Пиксели*Кадры) : 0.265
Размер потока : 1, 22 Гбайт (84%)
Библиотека кодирования : XviD 1.2.1 (UTC 2008-12-04)
Аудио #1
Идентификатор : 1
Формат : AC-3
Формат/Информация : Audio Coding 3
Расширение режима : CM (complete main)
Параметр Endianness формата : Big
Идентификатор кодека : 2000
Продолжительность : 1 ч. 25 м.
Вид битрейта : Постоянный
Битрейт : 192 Кбит/сек
Каналы : 2 канала
Расположение каналов : Front: L R
Частота : 48, 0 КГц
Битовая глубина : 16 бит
Метод сжатия : С потерями
Размер потока : 117 Мбайт (8%)
Выравнивание : Разделение по промежуткам
Продолжительность промежутка : 40 мс. (1, 01 видеокадр)
Время предзагрузки промежутка : 500 мс.
Аудио #2
Идентификатор : 2
Формат : AC-3
Формат/Информация : Audio Coding 3
Расширение режима : CM (complete main)
Параметр Endianness формата : Big
Идентификатор кодека : 2000
Продолжительность : 1 ч. 25 м.
Вид битрейта : Постоянный
Битрейт : 192 Кбит/сек
Каналы : 2 канала
Расположение каналов : Front: L R
Частота : 48, 0 КГц
Битовая глубина : 16 бит
Метод сжатия : С потерями
Размер потока : 117 Мбайт (8%)
Выравнивание : Разделение по промежуткам
Продолжительность промежутка : 40 мс. (1, 01 видеокадр)
Время предзагрузки промежутка : 500 мс.

Скриншоты


Релиз:
Залил: YArl

Онлайн видео Динамит


Размер скачиваемого торрента: 1.46 GB (1565329408 Bytes)

Динамит/T.N.T. (1997) DVDRip | P, A
загрузка...
Рейтинг →
 (голосов: 1, оценка 4/5, голосовать можно 1 раз )

Другие торренты по теме:



    Комментарии (0):

    Информация

    Информация

      Посетители, находящиеся в группе Гости, не могут оставлять комментарии в данной новости.

      ↓ Меню



      ↓ Опрос

      А Вы добавили сайт в закладки?
      Да
      Не


      Top 10 за неделю (Фильмы)