.
Авторизация | Регистрация
» » Молодость / Youth (2015) BDRip 720p | Звук с TS скачать торрент бесплатно




    Молодость / Youth (2015) BDRip 720p | Звук с TS скачать торрент бесплатно

    Опубликовал: Админ | Дата: 28-10-2015, 05:01 | Просмотров: 114



    Детально о кино
    Русское название: Молодость
    Русское название в мировом прокате: Youth
    Создали в: 2015
    Категория жанра: драма
    Главный режиссер: Паоло Соррентино

    Актеры
    Майкл Кейн, Харви Кейтель, Рэйчел Вайс, Пол Дано, Джейн Фонда, Марк Козелек, Роберт Ситалер, Алекс МакКуин, Луна Зимич Мийович, Том Липински

    Сюжет фильма
    Фрэд — прославленный композитор и дирижер, вопреки просьбам Ее Величества, отказывается выступить на Дне Рождении принца Филиппа, и на это у него есть веская причина. Мик, оскароносный режиссер, вовсю работает над новым сценарием фильма-откровения, но дело не слишком спорится. Фрэд и Мик уже полвека дружат, смеются над собой и дивятся красоте и несправедливости этого мира. Это лето они проводят на альпийском курорте, где любовные переживания уже взрослых детей, случайно подсмотренные драмы и откровения далекого прошлого навсегда изменят судьбы друзей.


    Снималось в: Италия, Франция, Швейцария, Великобритания/Medusa Mediaset Group, Indigo Film, Barbary Films, Number 9 Films, C-Films
    Время просмотра: 02: 03: 33
    Тип перевода: Дублированное Звук с TS
    Файл
    Тип видео: MKV
    Качество фильма: BDRip 720p
    Информация о видео: MPEG-4 AVC, 5158 kb/s, 1280x536
    Информация о звуке: Russian: AC3, 192 kb/s (2 ch)/English: AC3, 448 kb/s (6 ch)

    MI

    Format : Matroska
    Format version : Version 2
    File size : 5.11 GiB
    Duration : 2h 3mn
    Overall bit rate : 5 916 Kbps
    Encoded date : UTC 2015-10-27 21: 37: 06
    Writing application : mkvmerge v7.8.0 (;River Man;) 32bit built on Apr 3 2015 12: 11: 22
    Writing library : libebml v1.3.1 + libmatroska v1.4.2
    Video
    ID : 1
    Format : AVC
    Format/Info : Advanced Video Codec
    Format profile : High@L4.1
    Format settings, CABAC : Yes
    Format settings, ReFrames : 4 frames
    Codec ID : V_MPEG4/ISO/AVC
    Duration : 2h 3mn
    Bit rate : 5 158 Kbps
    Nominal bit rate : 5 500 Kbps
    Width : 1 280 pixels
    Height : 536 pixels
    Display aspect ratio : 2.40: 1
    Frame rate mode : Constant
    Frame rate : 23.976 fps
    Color space : YUV
    Chroma subsampling : 4: 2: 0
    Bit depth : 8 bits
    Scan type : Progressive
    Bits/(Pixel*Frame) : 0.314
    Stream size : 4.45 GiB (87%)
    Writing library : x264 core 146 r2555 0c21480
    Encoding settings : cabac=1/ref=4/deblock=1: -2: -2/analyse=0x3: 0x113/me=umh/subme=7/psy=1/psy_rd=1.00: 0.15/mixed_ref=1/me_range=16/chroma_me=1/trellis=1/8x8dct=1/cqm=0/deadzone=21, 11/fast_pskip=1/chroma_qp_offset=-3/threads=12/lookahead_threads=3/sliced_threads=0/nr=0/decimate=1/interlaced=0/bluray_compat=0/constrained_intra=0/bframes=3/b_pyramid=2/b_adapt=2/b_bias=0/direct=3/weightb=1/open_gop=0/weightp=2/keyint=250/keyint_min=25/scenecut=40/intra_refresh=0/rc_lookahead=50/rc=abr/mbtree=1/bitrate=5500/ratetol=1.0/qcomp=0.60/qpmin=0/qpmax=69/qpstep=4/vbv_maxrate=31250/vbv_bufsize=31250/nal_hrd=none/filler=0/ip_ratio=1.40/aq=1: 1.00
    Language : English
    Default : Yes
    Forced : No
    Audio #1
    ID : 2
    Format : AC-3
    Format/Info : Audio Coding 3
    Mode extension : CM (complete main)
    Format settings, Endianness : Big
    Codec ID : A_AC3
    Duration : 2h 3mn
    Bit rate mode : Constant
    Bit rate : 192 Kbps
    Channel(s) : 2 channels
    Channel positions : Front: L R
    Sampling rate : 48.0 KHz
    Bit depth : 16 bits
    Compression mode : Lossy
    Stream size : 170 MiB (3%)
    Language : Russian
    Default : Yes
    Forced : No
    Audio #2
    ID : 3
    Format : AC-3
    Format/Info : Audio Coding 3
    Mode extension : CM (complete main)
    Format settings, Endianness : Big
    Codec ID : A_AC3
    Duration : 2h 3mn
    Bit rate mode : Constant
    Bit rate : 448 Kbps
    Channel(s) : 6 channels
    Channel positions : Front: L C R, Side: L R, LFE
    Sampling rate : 48.0 KHz
    Bit depth : 16 bits
    Compression mode : Lossy
    Stream size : 396 MiB (8%)
    Language : English
    Default : No
    Forced : No
    Menu
    00: 00: 00.000 : en: 00: 00: 00.000
    00: 07: 52.806 : en: 00: 07: 52.806
    00: 13: 19.549 : en: 00: 13: 19.549
    00: 20: 04.620 : en: 00: 20: 04.620
    00: 26: 32.549 : en: 00: 26: 32.549
    00: 43: 57.635 : en: 00: 43: 57.635
    00: 47: 56.332 : en: 00: 47: 56.332
    00: 53: 46.056 : en: 00: 53: 46.056
    00: 56: 47.487 : en: 00: 56: 47.487
    01: 03: 54.330 : en: 01: 03: 54.330
    01: 15: 18.180 : en: 01: 15: 18.180
    01: 23: 02.769 : en: 01: 23: 02.769
    01: 30: 32.427 : en: 01: 30: 32.427
    01: 35: 09.871 : en: 01: 35: 09.871
    01: 43: 46.053 : en: 01: 43: 46.053
    01: 47: 43.624 : en: 01: 47: 43.624
    Скриншоты





    Онлайн видео Молодость


    Размер скачиваемого торрента: 5.11 GB (5484924418 Bytes)

    Молодость/Youth (2015) BDRip 720p | Звук с TS
    загрузка...
    Рейтинг →
     (голосов: 1, оценка 5/5, голосовать можно 1 раз )

    Другие торренты по теме:

  • Молодость без молодости / Youth without youth (2007) НDRip от Scarabey скачать через торрент бесплатно
  • Молодость / Youth (2015) BDRip 720p | Чистый звук скачать торрент бесплатно
  • Молодость / Youth / 2015 / ДБ (Line) / BDRip (720p) скачать торрент бесплатно
  • Молодость / Youth (2015) Blu-ray | Лицензия скачать торрент бесплатно
  • Молодость / Youth (2015) HDRip от Twi7ter | Лицензия скачать торрент бесплатно
  • Молодость / Youth (2015) BDRip-AVC | Лицензия скачать торрент бесплатно
  • Молодость / Youth (2015) HDRip-AVC | D скачать торрент бесплатно
  • Молодость / Youth (2015) скачать торрент бесплатно


    • Комментарии (0):

      Информация

      Информация

        Посетители, находящиеся в группе Гости, не могут оставлять комментарии в данной новости.

        ↓ Меню



        ↓ Опрос

        А Вы добавили сайт в закладки?
        Да
        Не


        Top 10 за неделю (Фильмы)