.
Авторизация | Регистрация
» » Украсть Кэнди / Stealing Candy (2003) DVDRip | P скачать торрент бесплатно




    Украсть Кэнди / Stealing Candy (2003) DVDRip | P скачать торрент бесплатно

    Опубликовал: Админ | Дата: 30-10-2015, 05:01 | Просмотров: 127



    Детально о кино
    Русское название: Украсть Кэнди
    Русское название в мировом прокате: Stealing Candy
    Создали в: 2003
    Категория жанра: триллер
    Главный режиссер: Марк Л. Лестер

    Актеры
    Дэниэл Болдуин, Кулио, Алекс МакАртур, Джения Лэно, Джастин Лестер, Пол Провенза, Уайли М. Пикетт, Кристофер Райделл, Эдриэнн Мелцер, Джули Ст. Клер

    Описание фильма
    Тюремный срок пошел прожженному аферисту Фреду Дауду на пользу: теперь он знает беспроигрышный способ разбогатеть. Вместе с отвязным психопатом Брэдом и уникальным суперхакером Уолтом он решает похитить знаменитую юную актрису Кэнди, но не ради выкупа.
    Бандиты намерены сделать из соблазнительной красотки скандальную порнозвезду Интернета, предоставив к ней доступ каждому, кто готов заплатить. Их план прост и гениален, но вскоре страх, алчность и безудержная страсть вносят в него неожиданные коррективы…

    Снималось в: США
    Время просмотра: 01: 23: 38
    Перевод текста: Профессиональный (многоголосый, закадровый)
    Файл
    Тип видео: AVI
    Качество фильма: DVDRip
    Информация о видео: 720x480, (3: 2), DivX 5, 1996 Кбит/сек, 25, 000 кадров/сек
    Информация о звукеMP3, 2 канала, 256 Кбит/сек, 48, 0 КГц
    Скриншоты:

    MediaInfo:
    Общее
    Полное имя : E: FilmУкрасть_красотку.avi
    Формат : AVI
    Формат/Информация : Audio Video Interleave
    Профиль формата : OpenDML
    Размер файла : 1, 32 Гбайт
    Продолжительность : 1 ч. 23 м.
    Общий поток : 2267 Кбит/сек
    Программа кодирования : Lavf51.12.1
    Видео
    Идентификатор : 0
    Формат : MPEG-4 Visual
    Профиль формата : Simple@L1
    Параметр BVOP формата : Нет
    Параметр QPel формата : Нет
    Параметр GMC формата : Без точки перехода
    Параметр матрицы формата : Default (H.263)
    Идентификатор кодека : DX50
    Идентификатор кодека/Подсказка : DivX 5
    Продолжительность : 1 ч. 23 м.
    Битрейт : 1996 Кбит/сек
    Ширина : 720 пикселей
    Высота : 480 пикселей
    Соотношение сторон : 3: 2
    Частота кадров : 25, 000 кадров/сек
    Цветовое пространство : YUV
    Субдискретизация насыщенности : 4: 2: 0
    Битовая глубина : 8 бит
    Тип развёртки : Прогрессивная
    Метод сжатия : С потерями
    Бит/(Пиксели*Кадры) : 0.231
    Размер потока : 1, 17 Гбайт (88%)
    Библиотека кодирования : Lavc51.40.4
    Аудио
    Идентификатор : 1
    Формат : MPEG Audio
    Версия формата : Version 1
    Профиль формата : Layer 3
    Режим : Joint stereo
    Расширение режима : MS Stereo
    Идентификатор кодека : 55
    Идентификатор кодека/Подсказка : MP3
    Продолжительность : 1 ч. 23 м.
    Вид битрейта : Постоянный
    Битрейт : 256 Кбит/сек
    Каналы : 2 канала
    Частота : 48, 0 КГц
    Метод сжатия : С потерями
    Размер потока : 153 Мбайт (11%)
    Выравнивание : Соединение по промежуткам
    Продолжительность промежутка : 24 мс. (0, 60 видеокадр)

    Залил: Gepg

    Онлайн видео Украсть Кэнди


    Размер скачиваемого торрента: 1.32 GB (1422397606 Bytes)

    Украсть Кэнди/Stealing Candy (2003) DVDRip | P
    загрузка...
    Рейтинг →
     (голосов: 1, оценка 5/5, голосовать можно 1 раз )

    Другие торренты по теме:

  • Как украсть небоскреб / Tower Heist (2011) BDRip-AVC торрент скачать бесплатно
  • Мой криминальный дядюшка / Украсть Гарвард / Stealing Harvard (2002) BDRip от Rulya74 торрент скачать бесплатно
  • Как украсть миллион / How to Steal a Million (1966) DVDRip от Odyzic и MyWorldFilm торрент скачать бесплатно
  • Украсть Гарвард / Мой криминальный дядюшка / Stealing Harvard (2002) BDRip-AVC торрент скачать бесплатно
  • Как украсть миллион / How to Steal a Million (1966) DVDRip-AVC от -=HD-NET=- торрент скачать бесплатно
  • Красиво украсть / The Art of the Steal (2013) BDRemux 1080p от NovaLan скачать через торрент бесплатно
  • Красиво украсть / Черные метки / The Art of the Steal (2013) BDRip-AVC от MediaClub | A торрент скачать бесплатно
  • Как украсть миллион / How to Steal a Million (1966) BDRip-AVC от MediaClub скачать через торрент бесплатно


    • Комментарии (0):

      Информация

      Информация

        Посетители, находящиеся в группе Гости, не могут оставлять комментарии в данной новости.

        ↓ Меню



        ↓ Опрос

        А Вы добавили сайт в закладки?
        Да
        Не


        Top 10 за неделю (Фильмы)