.
Авторизация | Регистрация
» » Полуночник / The Moonlighter (1953) DVDRip | L2 скачать торрент бесплатно




    Полуночник / The Moonlighter (1953) DVDRip | L2 скачать торрент бесплатно

    Опубликовал: Админ | Дата: 31-10-2015, 05:01 | Просмотров: 110



    Детально о кино
    Русское название: Полуночник/Ночной грабитель
    Русское название в мировом прокате: The Moonlighter
    Создали в: 1953
    Категория жанра: Мелодрама, вестерн
    Главный режиссер: Рой Роуланд

    Актеры
    Фред МакМюррэй, Барбара Стэнвик, Уорд Бонд, Уильям Чинг, Джон Диркес, Моррис Анкрум, Джек Элам, Чарльз Хэлтон, Норман Ливитт, Сэм Флинт

    Сюжет фильма

    Уэс Андерсон — скотокрад, которого считали давно повешенным. Однако, как оказалось, рассвирепевшая толпа ошибочно линчевала не того человека. Андерсон сбежал, но спустя годы он возвращается, чтобы свести счёты со своими линчевателями. В главных ролях замечательный дуэт: Фред Макмюррей, играющий закоренелого преступника Андерсона, и Барбара Стэнвик — женщина, когда-то романтично связанная с ним, а ныне представитель закона, и поклявшаяся доставить властям Андерсона живым или мёртвым. И мужчина для неё не преграда…

    Снималось в: США
    Время просмотра: 01: 17: 41
    Перевод текста: Любительский (двухголосый закадровый)
    Файл
    Кодек для видео: XviD
    Качество фильма: DVDRip
    Информация о видео: 640x480 (4: 3), 23.976 fps, ~2095 kbps avg, 0.25 bit/pixel
    Информация о звуке:
    Информация о звуке rus: 48 kHz, AC3 Dolby Digital, 2/0 (L, R) ch, ~192 kbps
    Информация о звуке eng: 48 kHz, AC3 Dolby Digital, 2/0 (L, R) ch, ~192 kbps
    Субтитры: Русские
    Семпл
    Релиз:

    Релиз подготовил:
    Перевод: Ия Савинна
    Редакция перевода: Эдуард Саухин, Алексей Alassea Крюков
    Закадровый текст: Ирина Котова и Павел Морозов
    Релиз подготовил: Skyns61
    На русский язык фильм переведен и озвучен специально для 7букв Вестерн/группа Джесси Джеймса

    MediaInfo:

    Общее
    Полное имя : F: FilmsThe.Moonlighter.1953The.Moonlighter.1953.avi
    Формат : AVI
    Формат/Информация : Audio Video Interleave
    Размер файла : 1, 35 Гбайт
    Продолжительность : 1 ч. 17 м.
    Общий поток : 2495 Кбит/сек
    Программа кодирования : VirtualDubMod 1.5.10.3 (build 2550/release)
    Библиотека кодирования : VirtualDubMod build 2550/release
    Видео
    Идентификатор : 0
    Формат : MPEG-4 Visual
    Профиль формата : Advanced Simple@L5
    Параметр BVOP формата : 2
    Параметр QPel формата : Нет
    Параметр GMC формата : Без точки перехода
    Параметр матрицы формата : Default (MPEG)
    Идентификатор кодека : XVID
    Идентификатор кодека/Подсказка : XviD
    Продолжительность : 1 ч. 17 м.
    Битрейт : 2097 Кбит/сек
    Ширина : 640 пикселей
    Высота : 480 пикселей
    Соотношение сторон : 4: 3
    Частота кадров : 23, 976 кадра/сек
    Цветовое пространство : YUV
    Субдискретизация насыщенности : 4: 2: 0
    Битовая глубина : 8 бит
    Тип развёртки : Прогрессивная
    Метод сжатия : С потерями
    Бит/(Пиксели*Кадры) : 0.285
    Размер потока : 1, 14 Гбайт (84%)
    Библиотека кодирования : XviD 73
    Аудио #1
    Идентификатор : 1
    Формат : AC-3
    Формат/Информация : Audio Coding 3
    Расширение режима : CM (complete main)
    Параметр Endianness формата : Big
    Идентификатор кодека : 2000
    Продолжительность : 1 ч. 17 м.
    Вид битрейта : Постоянный
    Битрейт : 192 Кбит/сек
    Каналы : 2 канала
    Расположение каналов : Front: L R
    Частота : 48, 0 КГц
    Метод сжатия : С потерями
    Размер потока : 107 Мбайт (8%)
    Выравнивание : Разделение по промежуткам
    Продолжительность промежутка : 42 мс. (1, 00 видеокадр)
    Время предзагрузки промежутка : 500 мс.
    Аудио #2
    Идентификатор : 2
    Формат : AC-3
    Формат/Информация : Audio Coding 3
    Расширение режима : CM (complete main)
    Параметр Endianness формата : Big
    Идентификатор кодека : 2000
    Продолжительность : 1 ч. 17 м.
    Вид битрейта : Постоянный
    Битрейт : 192 Кбит/сек
    Каналы : 2 канала
    Расположение каналов : Front: L R
    Частота : 48, 0 КГц
    Метод сжатия : С потерями
    Размер потока : 107 Мбайт (8%)
    Выравнивание : Разделение по промежуткам
    Продолжительность промежутка : 42 мс. (1, 00 видеокадр)
    Время предзагрузки промежутка : 500 мс.
    Скриншоты


    Релиз подготовил: skyns61
    Залил: skyn s61

    Онлайн видео Полуночник


    Размер скачиваемого торрента: 1.35 GB (1454021162 Bytes)

    Полуночник/The Moonlighter (1953) DVDRip | L2
    загрузка...
    Рейтинг →
     (голосов: 1, оценка 3/5, голосовать можно 1 раз )

    Другие торренты по теме:



      Комментарии (0):

      Информация

      Информация

        Посетители, находящиеся в группе Гости, не могут оставлять комментарии в данной новости.

        ↓ Меню



        ↓ Опрос

        А Вы добавили сайт в закладки?
        Да
        Не


        Top 10 за неделю (Фильмы)