.
Авторизация | Регистрация
Хочешь лучшие торренты? Добавь свой email!
Добавить
» » Цена любви (2015) HDTVRip от Files-x торрент скачать бесплатно




    Цена любви (2015) HDTVRip от Files-x торрент скачать бесплатно

    Опубликовал: Админ | Дата: 1-11-2015, 05:01 | Просмотров: 97



    Детально о кино
    Русское название в мировом прокате: Цена любви
    Создали в: 2015
    Категория жанра: Мелодрама
    Главный режиссер: Александр Хван

    Актеры
    Анна Невская, Юрий Батурин, Анастасия Матвеева, Ольга Чудакова, Натали Старынкевич, Павел Крайнов, Александр Никитин (IV), Анастасия Бусыгина, Татьяна Чернопятова, Татьяна Васильева (V), Евгений Ермаков, Олег Юдин (III), Михаил Калгин, Александра Мельник, Константин Дзямко, Сергей Подольный, Сабина Гусейнова, Георгий Лежава, Юрий Сазонов, Александр Базоев, Сергей Калашников, Лариса Бурмистрова, Лариса Бедненко, Михаил Вологдин, Ольга Шуваева

    Сюжет фильма
    Преподаватель университета Елена однажды пришла к выводу, что в ее жизни больше нет простого женского счастья. Она замужем, раньше между ней и супругом была страсть и любовь, но, увы, быт беспощадно съел их. От развода Елену останавливает только дочь Катя. Но однажды в университете появляется Андрей. Молодой 20-летний парень вскружил голову Елене. Она не думает о разнице в возрасте, позабыв об обязательствах и репутации…
    Снималось в: Россия, к/к Русское
    Время просмотра: 2 x ~ 01: 30: 00
    Перевод текста: Не требуется
    Сэмпл
    Файл
    Качество фильма: HDTVRip
    Информация о видео: XviD, ~ 1920 Кбит/с, 720х400
    Информация о звуке: AC3, 2 ch, 192 Кбит/с
    MI
    General
    Complete name : Y: раздачиChena love.2015.HDTVRip.RG.Russkie.serialy..Files-x1.Chena love.2015.HDTVRip.RG.Russkie.serialy..Files-x.avi
    Format : AVI
    Format/Info : Audio Video Interleave
    File size : 1.36 GiB
    Duration : 1h 30mn
    Overall bit rate : 2 156 Kbps
    Writing application : VirtualDubMod 1.5.10.3 | www.virtualdub-fr.org || (build 2550/release)
    Writing library : VirtualDubMod build 2550/release
    Video
    ID : 0
    Format : MPEG-4 Visual
    Format profile : Advanced Simple@L5
    Format settings, BVOP : 1
    Format settings, QPel : No
    Format settings, GMC : No warppoints
    Format settings, Matrix : Custom
    Codec ID : XVID
    Codec ID/Hint : XviD
    Duration : 1h 30mn
    Bit rate : 1 954 Kbps
    Width : 720 pixels
    Height : 400 pixels
    Display aspect ratio : 16: 9
    Frame rate : 25.000 fps
    Color space : YUV
    Chroma subsampling : 4: 2: 0
    Bit depth : 8 bits
    Scan type : Progressive
    Compression mode : Lossy
    Bits/(Pixel*Frame) : 0.271
    Stream size : 1.24 GiB (91%)
    Writing library : XviD 73
    Audio
    ID : 1
    Format : AC-3
    Format/Info : Audio Coding 3
    Mode extension : CM (complete main)
    Format settings, Endianness : Big
    Codec ID : 2000
    Duration : 1h 30mn
    Bit rate mode : Constant
    Bit rate : 192 Kbps
    Channel(s) : 2 channels
    Channel positions : Front: L R
    Sampling rate : 48.0 KHz
    Compression mode : Lossy
    Stream size : 124 MiB (9%)
    Alignment : Split accross interleaves
    Interleave, duration : 40 ms (1.00 video frame)
    Interleave, preload duratio : 500 ms

    Скриншоты


    Релиз подготовил:
    Размер скачиваемого торрента: 2.73 GB (2934491136 Bytes)

    Цена любви (2015) HDTVRip от Files-x
    загрузка...
    Рейтинг →
     (голосов: 1, оценка 4/5, голосовать можно 1 раз )

    Другие торренты по теме:

  • Цена любви (2015) SATRip
  • Цена любви (2015) HDTV 1080i
  • Цена любви (2 серии из 2) / 2015 / РУ / HDTVRip (AVC)
  • Следствие вели... с Леонидом Каневским. Цена любви (2016) HDTVRip от GeneralFim
  • Цена любви (2015) WEB-DLRip-AVC от Files-x
  • Кумиры с Валентиной Пимановой: Н.Караченцов. Любви не названа цена (2009) SATRip от Generalfilm


    • Комментарии (0):

      Информация

      Информация

        Посетители, находящиеся в группе Гости, не могут оставлять комментарии в данной новости.

        ↓ Меню



        ↓ Опрос

        А Вы добавили сайт в закладки?
        Да
        Не


        Top 10 за месяц (Фильмы)