.
Авторизация | Регистрация
» » Терминатор: Генезис / Terminator Genisys (2015) DVD-5 скачать торрент бесплатно




    Терминатор: Генезис / Terminator Genisys (2015) DVD-5 скачать торрент бесплатно

    Опубликовал: Админ | Дата: 2-11-2015, 05:01 | Просмотров: 265


    Судьба переписана

    Создали в: 2015
    Создали в: США/Paramount Pictures, Skydance Productions
    Категория жанра: Фантастика, боевик, триллер
    Главный режиссер: Алан Тейлор
    Продюсеры: Дэвид Эллисон, Дэна Голдберг, Билл Карраро
    Актеры: Арнольд Шварценеггер, Джейсон Кларк, Эмилия Кларк, Джай Кортни, Дж.К. Симмонс, Дайо Окенийи, Мэтт Смит, Кортни Б. Вэнс, Ли Бён Хон, Майкл Глэди
    Описание фильма:
    Когда Джон Коннор, лидер сопротивления, посылает сержанта Кайла Риза назад в 1984 год, чтобы защитить Сару Коннор и спасти будущее, неожиданный поворот событий создает разлом во времени. Сержант Риз оказывается в новой, незнакомой версии прошлого, где он встречает неожиданных союзников, в том числе Терминатора, новых опасных врагов, и новую миссию: изменить будущее…
    Перевод текста: Дублированный
    Субтитры: Английские, русские
    Дата мировой премьеры: 21 июня 2015
    Дата российской премьеры: 2 июля 2015, Централ Партнершип
    Дата выхода DVD релиза: 22 ноября 2015, Новый Диск
    Время просмотра: 02: 00: 35
    Качество фильма видео: DVD5
    Информация о видео: MPEG-2, 720x576@1024x576 (PAL 16: 9), ~4300 Кбит/сек
    Информация о звуке 1: AC3 5.1, 448 Кбит/сек Английский - оригинал
    Информация о звуке 2: AC3 5.1, 448 Кбит/сек Русский - дублированный
    DVDInfo:
    Title: Terminator Genisys (2015) DVD5 PAL
    Size: 4.38 Gb ( 4 589 022, 00 KBytes ) - DVD-5
    Enabled regions: 1, 2, 3, 4, 5, 6, 7, 8
    VTS_01 :
    Play Length: 02: 00: 35+00: 00: 01+00: 00: 20+00: 00: 20
    Video: PAL 16: 9 (720x576) VBR, Auto Letterboxed
    Audio:
    English (Dolby AC3, 6 ch)
    Russian (Dolby AC3, 6 ch)
    Subtitles:
    English
    Russian
    Russian
    * Menus Information *
    VIDEO_TS Menu
    Video:
    PAL 16: 9 (720x576) VBR
    Auto PanScan
    English Language Unit :
    Title Menu
    VTS_01 Menu
    Video:
    PAL 16: 9 (720x576) VBR
    Auto PanScan
    English Language Unit :
    Root Menu
    Subpicture Menu
    Audio Menu
    Angle menu
    Chapter (PTT) Menu
    MediaInfo:
    Общее
    Полное имя : G: ВидеоTerminator Genisys (2015) DVD5 PALVIDEO_TSVTS_01_3.VOB
    Формат : MPEG-PS
    Размер файла : 1024 Мбайт
    Продолжительность : 26 м.
    Режим общего битрейта : Переменный
    Общий поток : 5349 Кбит/сек
    Видео
    Идентификатор : 224 (0xE0)
    Формат : MPEG Video
    Версия формата : Version 2
    Профиль формата : Main@Main
    Параметр BVOP формата : Да
    Параметр матрицы формата : Выборочная
    Параметр GOP формата : Variable
    Продолжительность : 26 м.
    Вид битрейта : Переменный
    Битрейт : 4346 Кбит/сек
    Максимальный битрейт : 7060 Кбит/сек
    Ширина : 720 пикселей
    Высота : 576 пикселей
    Соотношение сторон : 16: 9
    Частота кадров : 25, 000 кадров/сек
    Стандарт вещания : PAL
    Цветовое пространство : YUV
    Субдискретизация насыщенности : 4: 2: 0
    Битовая глубина : 8 бит
    Тип развёртки : Прогрессивная
    Порядок развёртки : Верхнее поле первое
    Метод сжатия : С потерями
    Бит/(Пиксели*Кадры) : 0.419
    Временной код первого кадра : 00: 57: 19: 19
    Оригинал временного кода : Group of pictures t_head
    Размер потока : 832 Мбайт (81%)
    Аудио #1
    Идентификатор : 189 (0xBD)-128 (0x80)
    Формат : AC-3
    Формат/Информация : Audio Coding 3
    Расширение режима : CM (complete main)
    Параметр Endianness формата : Big
    Режим смешивания : DVD-Video
    Продолжительность : 26 м.
    Вид битрейта : Постоянный
    Битрейт : 448 Кбит/сек
    Каналы : 6 каналов
    Расположение каналов : Front: L C R, Side: L R, LFE
    Частота : 48, 0 КГц
    Битовая глубина : 16 бит
    Метод сжатия : С потерями
    Задержка видео : -344 мс.
    Размер потока : 85, 8 Мбайт (8%)
    Аудио #2
    Идентификатор : 189 (0xBD)-129 (0x81)
    Формат : AC-3
    Формат/Информация : Audio Coding 3
    Расширение режима : CM (complete main)
    Параметр Endianness формата : Big
    Режим смешивания : DVD-Video
    Продолжительность : 26 м.
    Вид битрейта : Постоянный
    Битрейт : 448 Кбит/сек
    Каналы : 6 каналов
    Расположение каналов : Front: L C R, Side: L R, LFE
    Частота : 48, 0 КГц
    Битовая глубина : 16 бит
    Метод сжатия : С потерями
    Задержка видео : -344 мс.
    Размер потока : 85, 8 Мбайт (8%)
    Текст #1
    Идентификатор : 189 (0xBD)-32 (0x20)
    Формат : RLE
    Формат/Информация : Run-length encoding
    Режим смешивания : DVD-Video
    Задержка видео : -80 мс.
    Текст #2
    Идентификатор : 189 (0xBD)-33 (0x21)
    Формат : RLE
    Формат/Информация : Run-length encoding
    Режим смешивания : DVD-Video
    Задержка видео : 2 с. 360 мс.
    Меню
    Доп. информация:
    Исходник: Терминатор: Генезис/Terminator Genisys (2015) DVD9 | D, А | Custom
    Удалены: доп. материалы, одноголосая звуковая дорожка (в меню кнопки затёрты).
    Команды диска переписаны заново, оставлен один VTS.
    Видео сжато на 27, 7%
    Меню: статичное, недействующие кнопки затерты и закрыты.
    Обработка и сжатие: DVD ReMake Pro + DVD Rebuilder + CCE SP2 7 проходов + Работа с меню (Adobe PhotoShop и MuxMan).
    Скриншоты меню:


    Скриншоты:

    Залил: Саша 1992

    Онлайн видео Терминатор: Генезис


    Размер скачиваемого торрента: 4.38 GB (4699158528 Bytes)

    Терминатор: Генезис/Terminator Genisys (2015) DVD-5
    загрузка...
    Рейтинг →
     (голосов: 1, оценка 4/5, голосовать можно 1 раз )

    Другие торренты по теме:



      Комментарии (0):

      Информация

      Информация

        Посетители, находящиеся в группе Гости, не могут оставлять комментарии в данной новости.

        ↓ Меню



        ↓ Опрос

        А Вы добавили сайт в закладки?
        Да
        Не


        Top 10 за неделю (Фильмы)