.
Авторизация | Регистрация




Воин (2015) WEB-DLRip от New-Team скачать торрент бесплатно

Опубликовал: Админ | Дата: 2-11-2015, 05:01 | Просмотров: 104



Снималось в: Россия
Создали в: Art Pictures Studio
Категория жанра: драма, спорт
Создали в: 2015
Время просмотра: 01: 27: 06
Перевод текста: Не требуется
Субтитры подготовлены: нет
Оригинальная аудиодорожка: русский
Главный режиссер: Алексей Андрианов

Актеры

Владимир Яглыч, Сергей Бондарчук (мл.), Светлана Ходченкова, Фёдор Бондарчук, Александр Балуев, Александр Новин, Мария Андреева, Алексей Комашко...
Полный список актёров
Описание:
Роман Родин уходит из морской пехоты и возвращается в родной Калининград. Здесь у него отец и старший брат Вячеслав, но как будто никого: они не семья и давно не общаются. Отец, когда-то талантливый тренер по боксу, мечтавший сделать из сыновей чемпионов, завязал и теперь живет рыбалкой, терзаясь сожалениями. А Слава с женой выбиваются из сил, чтобы заработать на лечение дочки… Шанс все исправить появляется, когда объявляют о международном турнире по смешанным единоборствам с огромным призовым фондом. Оба брата решают участвовать, и Роман обращается за помощью к отцу.
Когда брат пойдет на брата, а сын – на отца, столкнувшись лицом к лицу на ринге, смогут ли они победить призраков прошлого?




Источник: WEB-DL 1080p
Качество фильма видео: WEB-DLRip
Тип видео видео: AVI
Информация о видео: 720x304 (2, 35: 1), 25 fps, XviD ~ 996 kbps avg, 0.182 bit/pixel
Информация о звуке: 48 kHz, Dolby Digital AC3 2.0, 192 kbps
Раздача от:
MediaInfo

Общее
Полное имя : Voin.2015.WEB-DLRip_New-team_by_AVP_Studio.avi
Формат : AVI
Формат/Информация : Audio Video Interleave
Размер файла : 746 Мбайт
Продолжительность : 1 ч. 27 м.
Общий поток : 1198 Кбит/сек
Программа кодирования : VirtualDubMod 1.5.10.3 | www.virtualdub-fr.org || (build 2550/release)
Библиотека кодирования : VirtualDubMod build 2550/release
Видео
Идентификатор : 0
Формат : MPEG-4 Visual
Профиль формата : Advanced Simple@L5
Параметр BVOP формата : 1
Параметр QPel формата : Нет
Параметр GMC формата : Без точки перехода
Параметр матрицы формата : Выборочная
Идентификатор кодека : XVID
Идентификатор кодека/Подсказка : XviD
Продолжительность : 1 ч. 27 м.
Битрейт : 996 Кбит/сек
Ширина : 720 пикселей
Высота : 304 пикселя
Соотношение сторон : 2, 35: 1
Частота кадров : 25, 000 кадров/сек
Цветовое пространство : YUV
Субдискретизация насыщенности : 4: 2: 0
Битовая глубина : 8 бит
Тип развёртки : Прогрессивная
Метод сжатия : С потерями
Бит/(Пиксели*Кадры) : 0.182
Размер потока : 620 Мбайт (83%)
Библиотека кодирования : XviD 73
Аудио
Идентификатор : 1
Формат : AC-3
Формат/Информация : Audio Coding 3
Расширение режима : CM (complete main)
Параметр Endianness формата : Big
Идентификатор кодека : 2000
Продолжительность : 1 ч. 27 м.
Вид битрейта : Постоянный
Битрейт : 192 Кбит/сек
Каналы : 2 канала
Расположение каналов : Front: L R
Частота : 48, 0 КГц
Метод сжатия : С потерями
Размер потока : 120 Мбайт (16%)
Выравнивание : Разделение по промежуткам
Продолжительность промежутка : 40 мс. (1, 00 видеокадр)
Время предзагрузки промежутка : 500 мс

Скриншоты



Залил: AVPStudio

Онлайн видео Воин (2015) WEB


Размер скачиваемого торрента: 746.08 MB (782323712 Bytes)

Воин (2015) WEB-DLRip от New-Team
загрузка...
Рейтинг →
 (голосов: 1, оценка 5/5, голосовать можно 1 раз )

Другие торренты по теме:

  • Воин (2015) WEB-DLRip-AVC от ExKinoRay скачать торрент бесплатно
  • Cнайпер: воин призрак / Sniper: Ghost Shooter (2016) WEB-DLRip-AVC от ExKinoRay | iTunes Russia скачать торрент бесплатно
  • Cнайпер: воин призрак / Sniper: Ghost Shooter (2016) WEB-DLRip от MegaPeer | iTunes скачать торрент бесплатно
  • Cнайпер: воин призрак / Sniper: Ghost Shooter (2016) WEB-DLRip от MegaPeer | iTunes скачать торрент бесплатно
  • Снайпер: воин призрак / Sniper: Ghost Shooter / 2016 / ПМ, СТ / WEB-DLRip (AVC) скачать торрент бесплатно
  • Принцесса-воин / Warrior Princess (2014) WEB-DLRip | L2 скачать торрент бесплатно
  • Савва. Сердце воина (2015) WEB-DLRip от GeneralFilm скачать торрент бесплатно
  • Савва. Сердце воина (2015) WEB-DLRip | iTunes скачать торрент бесплатно


    • Комментарии (0):

      Информация

      Информация

        Посетители, находящиеся в группе Гости, не могут оставлять комментарии в данной новости.

        ↓ Меню



        ↓ Опрос

        А Вы добавили сайт в закладки?
        Да
        Не


        Top 10 за неделю (Фильмы)