.
Авторизация | Регистрация
» » Контроль / Control (2004) WEB-DLRip-AVC от NNM-CLUB | P скачать торрент бесплатно




    Контроль / Control (2004) WEB-DLRip-AVC от NNM-CLUB | P скачать торрент бесплатно

    Опубликовал: Админ | Дата: 5-11-2015, 05:01 | Просмотров: 100


    Контроль/Control (2004) WEB-DLRip-AVC

    Создали в: США, Arc Productions, Emmett/Furla Films, Millennium Films
    Категория жанра: Триллер
    Главный режиссер: Тим Хантер
    Актеры: Рэй Лиотта, Уиллем Дефо, Мишель Родригес, Кэтлин Робертсон, Полли Уокер, Тим ДиКей, Стивен Ри

    Описание фильма

    Опасный психопат-убийца, приговоренный к смертной казни, получает шанс сохранить свою жизнь, согласившись принять участие в медицинской программе исследования возможностей изменения человеческого поведения с применением сильнодействующих препаратов. Но, вскоре, ответственному за эту программу врачу, придется столкнуться с вырвавшимися наружу отголосками сурового прошлого пациента...

    Релиз подготовил: FAGOT100(NNM-CLUB)
    Время просмотра: 01: 38: 59
    Качество фильма видео: WEB-DLRip-AVC
    Перевод текста: Профессиональный (многоголосый, закадровый)
    Язык субтитров: Русский, английский
    Вид субтитров: Вшитые отключаемые
    Информация о видео: AVC, 1024x556 (16: 9), 23.976 fps, 1 656 Kbps (0.121 bit/pixel)
    Информация о звуке: AC-3, 48.0 KHz, 6 ch, 448 Kbps, CBR (Russian)
    Скриншоты:

    Mediainfo:
    code
    Формат : Matroska
    Версия формата : Version 2
    Размер файла : 1, 46 Гбайт
    Продолжительность : 1 ч. 38 м.
    Общий поток : 2105 Кбит/сек
    Дата кодирования : UTC 2015-11-03 17: 01: 08
    Программа кодирования : mkvmerge v5.3.0 (;I could have danced;) built on Feb 9 2012 10: 38: 07
    Библиотека кодирования : libebml v1.2.3 + libmatroska v1.3.0
    Attachment : Yes
    Видео
    Идентификатор : 1
    Формат : AVC
    Формат/Информация : Advanced Video Codec
    Профиль формата : High@L4.1
    Параметр CABAC формата : Да
    Параметр ReFrames формата : 8 кадров
    Идентификатор кодека : V_MPEG4/ISO/AVC
    Продолжительность : 1 ч. 38 м.
    Битрейт : 1656 Кбит/сек
    Ширина : 1024 пикселя
    Высота : 556 пикселей
    Соотношение сторон : 1, 85: 1
    Режим частоты кадров : Постоянный
    Частота кадров : 23, 976 кадра/сек
    Цветовое пространство : YUV
    Субдискретизация насыщенности : 4: 2: 0
    Битовая глубина : 8 бит
    Тип развёртки : Прогрессивная
    Бит/(Пиксели*Кадры) : 0.121
    Размер потока : 1, 12 Гбайт (77%)
    Библиотека кодирования : x264 core 146 r2538 121396c
    Настройки программы : cabac=1/ref=8/deblock=1: -3: -3/analyse=0x3: 0x133/me=umh/subme=10/psy=1/psy_rd=0.98: 0.20/mixed_ref=1/me_range=32/chroma_me=1/trellis=2/8x8dct=1/cqm=0/deadzone=21, 11/fast_pskip=0/chroma_qp_offset=-3/threads=12/lookahead_threads=1/sliced_threads=0/nr=0/decimate=0/interlaced=0/bluray_compat=0/constrained_intra=0/bframes=6/b_pyramid=2/b_adapt=2/b_bias=0/direct=3/weightb=1/open_gop=0/weightp=2/keyint=240/keyint_min=23/scenecut=40/intra_refresh=0/rc=2pass/mbtree=0/bitrate=1656/ratetol=1.0/qcomp=0.60/qpmin=0/qpmax=69/qpstep=4/cplxblur=20.0/qblur=0.5/ip_ratio=1.40/pb_ratio=1.30/aq=1: 0.90
    Язык : English
    Default : Да
    Forced : Нет
    Аудио
    Идентификатор : 2
    Формат : AC-3
    Формат/Информация : Audio Coding 3
    Расширение режима : CM (complete main)
    Параметр Endianness формата : Big
    Идентификатор кодека : A_AC3
    Продолжительность : 1 ч. 38 м.
    Вид битрейта : Постоянный
    Битрейт : 448 Кбит/сек
    Каналы : 6 каналов
    Расположение каналов : Front: L C R, Side: L R, LFE
    Частота : 48, 0 КГц
    Битовая глубина : 16 бит
    Метод сжатия : С потерями
    Размер потока : 317 Мбайт (21%)
    Заголовок : DD 5.1 @ 448 kbps/MVO
    Язык : Russian
    Default : Нет
    Forced : Нет
    Текст #1
    Идентификатор : 3
    Формат : UTF-8
    Идентификатор кодека : S_TEXT/UTF8
    Идентификатор кодека/Информация : UTF-8 Plain Text
    Заголовок : RUS
    Язык : Russian
    Default : Нет
    Forced : Нет
    Текст #2
    Идентификатор : 4
    Формат : UTF-8
    Идентификатор кодека : S_TEXT/UTF8
    Идентификатор кодека/Информация : UTF-8 Plain Text
    Заголовок : ENG
    Язык : English
    Default : Нет
    Forced : Нет
    Меню
    00: 00: 00.000 : en: Opening Credits
    00: 04: 46.000 : en: Second Chance
    00: 11: 22.000 : en: Revisiting The Past
    00: 17: 38.000 : en: Textbook Socipath
    00: 23: 27.000 : en: Increase The Dosage
    00: 29: 21.000 : en: Remorse
    00: 32: 39.000 : en: Phase II
    00: 36: 58.000 : en: Help Wanted
    00: 43: 04.000 : en: Escape
    00: 45: 25.000 : en: Act of Contrition
    00: 53: 57.000 : en: Starting From Scratch
    01: 00: 31.000 : en: Loose Ends
    01: 06: 12.000 : en: Authorized To Terminate
    01: 14: 54.000 : en: Desperate Measures
    01: 28: 50.000 : en: Life Saver
    01: 35: 55.000 : en: End Credits


    Онлайн видео Контроль


    Размер скачиваемого торрента: 1.46 GB (1563043906 Bytes)

    Контроль/Control (2004) WEB-DLRip-AVC от NNM-CLUB | P
    загрузка...
    Рейтинг →
     (голосов: 1, оценка 3/5, голосовать можно 1 раз )

    Другие торренты по теме:

  • Контроль / Control (2004) Web-DLRip от New-Team торрент скачать бесплатно
  • Контроль / Control (2004) HDRip | P, A скачать торрент бесплатно
  • Контроль / Control (2004) HDRip от Portablius | P скачать торрент бесплатно
  • Контроль / Control (2004) HDRip от Scarabey | P скачать торрент бесплатно
  • Миссия Секс-контроль / Mission Sex Control (2006) DVDRip от CINEMANIA | L2 торрент скачать бесплатно
  • Предел контроля / The Limits of Control (2009) HDRip от Scarabey | P скачать через торрент бесплатно
  • Скорость 2: Контроль над круизом / Speed 2: Cruise Control (1997) BDRip 1080p | P торрент скачать бесплатно
  • Скорость 2: Контроль над круизом / Speed 2: Cruise Control (1997) BDRemux 1080p | P торрент скачать бесплатно


    • Комментарии (0):

      Информация

      Информация

        Посетители, находящиеся в группе Гости, не могут оставлять комментарии в данной новости.

        ↓ Меню



        ↓ Опрос

        А Вы добавили сайт в закладки?
        Да
        Не


        Top 10 за неделю (Фильмы)