.
Авторизация | Регистрация
Хочешь лучшие торренты? Добавь свой email!
Добавить
» » Идентификация / Identity (2003) BDRip 1080p by msltel торрент скачать бесплатно




    Идентификация / Identity (2003) BDRip 1080p by msltel торрент скачать бесплатно

    Опубликовал: Админ | Дата: 5-11-2015, 05:01 | Просмотров: 81



    Русское название: Идентификация
    Русское название в мировом прокате: Identity
    Создали в: 2003
    Снималось в: США
    Категория жанра: Триллер, детектив
    Время просмотра: 01: 30: 02
    Перевод текста: профессиональный многоголосый, профессиональный двухголосый, авторский
    Главный режиссёр: Джеймс Мэнголд

    Актеры
    Джон Кьюсак, Рэй Лиотта, Аманда Пит, Джон Хоукс, Альфред Молина, Клеа ДюВалл, Джон К. МакГинли, Уильям Ли Скотт, Джейк Бьюзи, Прюитт Тейлор Винс
    Описание: Бушует жуткий ливень. В поисках укрытия десять путешественников вынуждены остановиться на ночь в старом придорожном мотеле. Однако вскоре они с ужасом обнаруживают, что это место становится не спасительным укрытием, а смертельной мышеловкой. Люди гибнут один за другим, а убийца, скрывающийся среди них, по-прежнему не вычислен. С каждым новым трупом оставшимся в живых становится всё очевиднее, что их всех вместе собрала далеко не судьба, а чья-то дьявольски изощрённая воля, творящая собственное правосудие...

    Качество фильма: BDRip 1080p Сравнение с исходником
    Тип видео: MKV
    Информация о видео: MPEG-4 AVC, 10 Mбит/с, 1920x796, 23, 976 кадра/с
    Информация о звуке 1: русский, DTS, 1509 kbps, 6 ch, 48 kHz профессиональный многоголосый
    Информация о звуке 2: русский, AC3, 448 kbps, 6 ch, 48 kHz профессиональный двухголосый, Видеосервис
    Информация о звуке 3: русский, DTS, 1509 kbps, 6 ch, 48 kHz авторский, Дмитрий Есарев
    Внешние файлы
    Информация о звуке: русский, AC3, 192 kbps, 2 ch, 48 kHz профессиональный многоголосый, ОРТ
    Информация о звуке: русский, AC3, 192 kbps, 2 ch, 48 kHz авторский, Андрей Гаврилов
    Информация о звуке: английский, DTS, 1509 kbps, 6 ch, 48 kHz оригинал
    Субтитры: русские
    Субтитры: английские
    Инфо-файл
    Общее
    Полное имя : D: VideoИдентификация.2003.BDRip.1080pИдентификация.2003.AVO.rus.А.Гаврилов.ac3
    Формат : AC-3
    Формат/Информация : Audio Coding 3
    Размер файла : 124 Мбайт
    Продолжительность : 1 ч. 30 м.
    Режим общего битрейта : Постоянный
    Общий поток : 192 Кбит/сек
    Аудио
    Формат : AC-3
    Формат/Информация : Audio Coding 3
    Расширение режима : CM (complete main)
    Параметр Endianness формата : Big
    Продолжительность : 1 ч. 30 м.
    Вид битрейта : Постоянный
    Битрейт : 192 Кбит/сек
    Каналы : 2 канала
    Расположение каналов : Front: L R
    Частота : 48, 0 КГц
    Метод сжатия : С потерями
    Размер потока : 124 Мбайт (100%)
    Общее
    Уникальный идентификатор : 217451733490361256147897778030744138402 (0xA397AE352B5ABF1C9E6B19F7D91372A2)
    Полное имя : D: VideoИдентификация.2003.BDRip.1080pИдентификация.2003.BDRip.1080p .mkv
    Формат : Matroska
    Версия формата : Version 4/Version 2
    Размер файла : 8, 66 Гбайт
    Продолжительность : 1 ч. 30 м.
    Общий поток : 13, 8 Мбит/сек
    Название фильма : BDRip -- STarankov
    Дата кодирования : UTC 2015-11-04 08: 55: 26
    Программа кодирования : mkvmerge v8.2.0 (;World of Adventure;) 64bit
    Библиотека кодирования : libebml v1.3.1 + libmatroska v1.4.2
    DURATION : 01: 30: 02.326000000
    NUMBER_OF_FRAMES : 506468
    NUMBER_OF_BYTES : 1019014300
    _STATISTICS_WRITING_APP : mkvmerge v8.2.0 (;World of Adventure;) 64bit
    _STATISTICS_WRITING_DATE_UTC : 2015-11-04 08: 55: 26
    _STATISTICS_TAGS : BPS DURATION NUMBER_OF_FRAMES NUMBER_OF_BYTES
    Видео
    Идентификатор : 1
    Формат : AVC
    Формат/Информация : Advanced Video Codec
    Профиль формата : High@L4.1
    Параметр CABAC формата : Да
    Параметр ReFrames формата : 4 кадра
    Идентификатор кодека : V_MPEG4/ISO/AVC
    Продолжительность : 1 ч. 30 м.
    Битрейт : 10, 0 Мбит/сек
    Ширина : 1920 пикселей
    Высота : 796 пикселей
    Соотношение сторон : 2, 40: 1
    Режим частоты кадров : Постоянный
    Частота кадров : 23, 976 кадра/сек
    Цветовое пространство : YUV
    Субдискретизация насыщенности : 4: 2: 0
    Битовая глубина : 8 бит
    Тип развёртки : Прогрессивная
    Бит/(Пиксели*Кадры) : 0.274
    Размер потока : 6, 31 Гбайт (73%)
    Библиотека кодирования : x264 core 146 r2538 121396c
    Залил: msltel

    Онлайн видео Идентификация


    Размер скачиваемого торрента: 9.31 GB (9992550756 Bytes)


    Идентификация/Identity (2003) BDRip 1080p by msltel
    загрузка...
    Рейтинг →
     (голосов: 1, оценка 3/5, голосовать можно 1 раз )

    Другие торренты по теме:

  • Идентификация / Identity (2003) BDRip 720p от leonardo 59 Scarabey
  • Идентификация / Identity (2003) BDRip-AVC | P скачать через торрент бесплатно
  • Идентификация / Identity (2003) BDRip-AVC от HELLYWOOD | P скачать через торрент бесплатно
  • Идентификация / Identity (2003) BDRip от HQ-ViDEO
  • Идентификация / Identity / 2003 / ПМ, ПД, АП (Есарев, Гаврилов), СТ / Blu-Ray Remux (1080p)
  • Идентификация Борна / The Bourne Identity (2002) BDRip от HQ-ViDEO
  • Идентификация Борна / The Bourne Identity (2002) BDRip-AVC | D
  • Идентификация Борна / The Bourne Identity (2002) BDRip 1080p от HQCLUB | Лицензия


    • Комментарии (0):

      Информация

      Информация

        Посетители, находящиеся в группе Гости, не могут оставлять комментарии в данной новости.

        ↓ Меню



        ↓ Опрос

        А Вы добавили сайт в закладки?
        Да
        Не


        Top 10 за месяц (Фильмы)