.
Авторизация | Регистрация
» » Человек-муравей / Ant-Man (2015) WEBRip | Звук c CAMRip скачать торрент бесплатно




    Человек-муравей / Ant-Man (2015) WEBRip | Звук c CAMRip скачать торрент бесплатно

    Опубликовал: Админ | Дата: 6-11-2015, 05:01 | Просмотров: 181


    Человек-муравей/Ant-Man

    Создали в: США/Marvel Studios Inc
    Создали в: 2015 г.
    Категория жанра: фантастика, боевик, комедия, приключения
    Время просмотра: 01: 57: 16
    Мировая премьера: 29 июня 2015
    Российская премьера: 16 июля 2015, WDSSPR
    Дата выхода DVD: 17 ноября 2015, Уолт Дисней Компани СНГ
    Дата выхода Blu-Ray: 17 ноября 2015, Уолт Дисней Компани СНГ
    Перевод текста: Профессиональный (полное дублирование) звук с CAMRip
    Главный режиссер: Пейтон Рид/Peyton Reed


    Актеры
    Пол Радд, Майкл Дуглас, Эванджелин Лилли, Кори Столл, Майкл Пенья, Бобби, Каннавале, Ти-Ай, Давид Дастмалчян, Эбби Райдер Фортсон, Джуди Грир

    Описание: Вооружившись удивительной способностью уменьшаться в размере, но обладать при этом большой силой, мошенник Скотт Лэнг должен стать героем и помочь своему наставнику, доктору Хэнку Пиму, сохранить в тайне существование костюма Человека-муравья от угроз нового поколения.

    Качество фильма видео: WEBRip
    Контейнер: AVI
    Информация о видео кодек: XviD
    Информация о звуке кодек: MP3
    Информация о видео: 754 Кбит/сек, 640x336, 30, 000 кадров/сек, 0.117 Бит/(Пиксели*Кадры)
    Информация о звуке: 128 Кбит/сек, 2 канала, 48, 0 КГц
    Субтитры подготовлены: отсутствуют
    Media Info

    Общее
    Формат : AVI
    Формат/Информация : Audio Video Interleave
    Размер файла : 750 Мбайт
    Продолжительность : 1 ч. 57 м.
    Общий поток : 894 Кбит/сек
    Программа кодирования : VirtualDubMod 1.5.10.2 (build 2540/release)
    Библиотека кодирования : VirtualDub build 35576/release
    Видео
    Идентификатор : 0
    Формат : MPEG-4 Visual
    Профиль формата : Advanced Simple@L5
    Параметр BVOP формата : 2
    Параметр QPel формата : Нет
    Параметр GMC формата : Без точки перехода
    Параметр матрицы формата : Default (H.263)
    Режим смешивания : Сжатый битовый поток
    Идентификатор кодека : XVID
    Идентификатор кодека/Подсказка : XviD
    Продолжительность : 1 ч. 57 м.
    Битрейт : 754 Кбит/сек
    Ширина : 640 пикселей
    Высота : 336 пикселей
    Соотношение сторон : 1, 905
    Частота кадров : 30, 000 кадров/сек
    Цветовое пространство : YUV
    Субдискретизация насыщенности : 4: 2: 0
    Битовая глубина : 8 бит
    Тип развёртки : Прогрессивная
    Метод сжатия : С потерями
    Бит/(Пиксели*Кадры) : 0.117
    Размер потока : 633 Мбайт (84%)
    Библиотека кодирования : XviD 73
    Аудио
    Идентификатор : 1
    Формат : MPEG Audio
    Версия формата : Version 1
    Профиль формата : Layer 3
    Режим : Joint stereo
    Расширение режима : MS Stereo
    Идентификатор кодека : 55
    Идентификатор кодека/Подсказка : MP3
    Продолжительность : 1 ч. 57 м.
    Вид битрейта : Постоянный
    Битрейт : 128 Кбит/сек
    Каналы : 2 канала
    Частота : 48, 0 КГц
    Метод сжатия : С потерями
    Размер потока : 107 Мбайт (14%)
    Выравнивание : Разделение по промежуткам
    Продолжительность промежутка : 33 мс. (1, 00 видеокадр)
    Время предзагрузки промежутка : 500 мс.

    Скриншоты



    Залил: nbdjod

    Онлайн видео Человек-муравей


    Размер скачиваемого торрента: 749.74 MB (786161562 Bytes)

    Человек-муравей/Ant-Man (2015) WEBRip | Звук c CAMRip
    загрузка...
    Рейтинг →
     (голосов: 1, оценка 4/5, голосовать можно 1 раз )

    Другие торренты по теме:

  • Человек-муравей / Ant-Man (2015) WEBRip | Чистый звук скачать торрент бесплатно
  • Человек-муравей / Ant-Man (2015) WEB-DL 720p | iTunes скачать торрент бесплатно
  • Человек-муравей / Ant-Man (2015) HDRip | iTunes скачать торрент бесплатно
  • Человек-муравей / Ant-Man (2015) BDRip 720p | iTunes скачать торрент бесплатно
  • Человек-муравей / Ant-Man (2015) BDRip-AVC от New-Team | iTunes скачать торрент бесплатно
  • Человек-муравей / Ant-Man (2015) HDRip от Scarabey | iTunes скачать торрент бесплатно
  • Человек-муравей / Ant-Man (2015) BDRip 720p | Лицензия скачать торрент бесплатно
  • Человек-муравей / Ant-Man (2015) ВDRip-AVC от ExKinoRay | Лицензия скачать торрент бесплатно


    • Комментарии (0):

      Информация

      Информация

        Посетители, находящиеся в группе Гости, не могут оставлять комментарии в данной новости.

        ↓ Меню



        ↓ Опрос

        А Вы добавили сайт в закладки?
        Да
        Не


        Top 10 за неделю (Фильмы)