.
Авторизация | Регистрация
» » Непримиримые противоречия / Irreconcilable Differences (1984) BDRip-AVC | A скачать торрент бесплатно




    Непримиримые противоречия / Irreconcilable Differences (1984) BDRip-AVC | A скачать торрент бесплатно

    Опубликовал: Админ | Дата: 6-11-2015, 05:01 | Просмотров: 123



    Раздача является материалом, специально подготовленным и переведенным для new-team.org
    They;ve Got Everything... including a 10 year old daughter who;s suing them for divorce

    Снималось в: США/Hemdale Films, Lantana, Warner Bros. Pictures
    Категория жанра: драма, мелодрама, комедия
    Создали в: 1984
    Время просмотра: 01: 53: 48
    Перевод текста: Авторский (одноголосый) Антон Алексеев
    Субтитры подготовлены: английский
    Оригинальная аудиодорожка: нет
    Главный режиссер: Чарльз Шайер/Charles Shyer

    Актеры
    Райан О’Нил, Шелли Лонг, Дрю Бэрримор, Сэм Уонамейкер, Аллен Гарфилд, Шэрон Стоун, Ким Марринер, Венди Гордон, Кен Гэйл, Дебора Коуди...
    Описание: Супруги Альберт и Люси собираются развестись и начинают раздел имущества. Это приводит в возмущение их десятилетнюю дочь Кейси, которая вскоре подает на них в суд с целью лишить своих родителей родительских прав.

    Качество фильма: BDRip-AVC/BDRemux
    Тип видео: MKV
    Информация о видео: 1 024x576 (16: 9), MPEG-4 AVC 1 641 Кбит/сек/23.976 fps/Бит/(Пиксели*Кадры) : 0.116
    Информация о звуке: 48 kHz, Dolby AC3, 1 ch, 192 kbps, русский
    Дополнительно: На оригинальную дорожку наложен чистый голос перевода Антона Алексеева.
    Раздача от:
    MediaInfo

    General
    Format : Matroska
    Format version : Version 4/Version 2
    File size : 1.46 GiB
    Duration : 1h 53mn
    Overall bit rate : 1 834 Kbps
    Encoded date : UTC 2015-11-05 09: 06: 38
    Writing application : mkvmerge v8.5.1 (;Where you lead I will follow;) 64bit
    Writing library : libebml v1.3.3 + libmatroska v1.4.4
    DURATION : 01: 49: 22.477000000
    NUMBER_OF_FRAMES : 2041
    NUMBER_OF_BYTES : 63883
    _STATISTICS_WRITING_APP : mkvmerge v8.5.1 (;Where you lead I will follow;) 64bit
    _STATISTICS_WRITING_DATE_UT : 2015-11-05 09: 06: 38
    _STATISTICS_TAGS : BPS DURATION NUMBER_OF_FRAMES NUMBER_OF_BYTES
    Video
    ID : 1
    Format : AVC
    Format/Info : Advanced Video Codec
    Format profile : High@L4.1
    Format settings, CABAC : Yes
    Format settings, ReFrames : 8 frames
    Codec ID : V_MPEG4/ISO/AVC
    Duration : 1h 53mn
    Bit rate : 1 641 Kbps
    Width : 1 024 pixels
    Height : 576 pixels
    Display aspect ratio : 16: 9
    Frame rate mode : Constant
    Frame rate : 23.976 fps
    Color space : YUV
    Chroma subsampling : 4: 2: 0
    Bit depth : 8 bits
    Scan type : Progressive
    Bits/(Pixel*Frame) : 0.116
    Stream size : 1.28 GiB (88%)
    Writing library : x264 core 148 r2597 e86f3a1
    Encoding settings : cabac=1/ref=8/deblock=1: -2: -1/analyse=0x3: 0x113/me=umh/subme=10/psy=1/psy_rd=1.00: 0.05/mixed_ref=1/me_range=32/chroma_me=1/trellis=2/8x8dct=1/cqm=0/deadzone=21, 11/fast_pskip=0/chroma_qp_offset=-3/threads=9/lookahead_threads=1/sliced_threads=0/nr=0/decimate=0/interlaced=0/bluray_compat=0/constrained_intra=0/bframes=8/b_pyramid=2/b_adapt=2/b_bias=0/direct=3/weightb=1/open_gop=0/weightp=2/keyint=250/keyint_min=25/scenecut=40/intra_refresh=0/rc=2pass/mbtree=0/bitrate=1641/ratetol=1.0/qcomp=0.60/qpmin=0/qpmax=69/qpstep=4/cplxblur=20.0/qblur=0.5/ip_ratio=1.40/pb_ratio=1.30/aq=1: 1.00
    Language : English
    Default : Yes
    Forced : No
    DURATION : 01: 53: 47.821000000
    NUMBER_OF_FRAMES : 163704
    NUMBER_OF_BYTES : 1399732778
    _STATISTICS_WRITING_APP : mkvmerge v8.5.1 (;Where you lead I will follow;) 64bit
    _STATISTICS_WRITING_DATE_UT : 2015-11-05 09: 06: 38
    _STATISTICS_TAGS : BPS DURATION NUMBER_OF_FRAMES NUMBER_OF_BYTES
    Audio
    ID : 2
    Format : AC-3
    Format/Info : Audio Coding 3
    Mode extension : CM (complete main)
    Format settings, Endianness : Big
    Codec ID : A_AC3
    Duration : 1h 53mn
    Bit rate mode : Constant
    Bit rate : 192 Kbps
    Channel(s) : 1 channel
    Channel positions : Front: C
    Sampling rate : 48.0 KHz
    Compression mode : Lossy
    Stream size : 156 MiB (10%)
    Language : Russian
    Default : Yes
    Forced : No
    Text
    ID : 3
    Format : UTF-8
    Codec ID : S_TEXT/UTF8
    Codec ID/Info : UTF-8 Plain Text
    Language : English
    Default : No
    Forced : No

    Скриншоты:




    Онлайн видео Непримиримые противоречия


    Размер скачиваемого торрента: 1.46 GB (1565215175 Bytes)

    Непримиримые противоречия/Irreconcilable Differences (1984) BDRip-AVC | A
    загрузка...
    Рейтинг →
     (голосов: 1, оценка 4/5, голосовать можно 1 раз )

    Другие торренты по теме:

  • Непримиримые противоречия / Irreconcilable Differences (1984) BDRip от New-Team | A скачать торрент бесплатно
  • Непримиримые противоречия / Irreconcilable Differences (1984) BDRip от New-Team | A скачать торрент бесплатно
  • Непримиримые противоречия / Irreconcilable Differences (1984) BDRip 1080p от New-Team | A скачать торрент бесплатно
  • Непримиримые противоречия / Irreconcilable Differences (1984) BDRip 1080p от New-Team | A скачать торрент бесплатно
  • Непримиримые противоречия / Irreconcilable Differences (1984) BDRip от New-Team | A скачать торрент бесплатно
  • Непримиримые противоречия / Irreconcilable Differences (1984) BDRip 720p от New-Team | A скачать торрент бесплатно


    • Комментарии (0):

      Информация

      Информация

        Посетители, находящиеся в группе Гости, не могут оставлять комментарии в данной новости.

        ↓ Меню



        ↓ Опрос

        А Вы добавили сайт в закладки?
        Да
        Не


        Top 10 за неделю (Фильмы)