.
Авторизация | Регистрация
Хочешь лучшие торренты? Добавь свой email!
Добавить
» » Эверест / Everest (2015) WEBRip 720p от Электричка | Чистый звук торрент скачать бесплатно




    Эверест / Everest (2015) WEBRip 720p от Электричка | Чистый звук торрент скачать бесплатно

    Опубликовал: Админ | Дата: 7-11-2015, 05:01 | Просмотров: 120



    Детально о кино
    Русское название: Эверест
    Русское название в мировом прокате: Everest
    Создали в: 2015
    Категория жанра: Триллер, драма, приключения
    Главный режиссер: Бальтасар Кормакур

    Актеры
    Джейсон Кларк, Джош Бролин, Джон Хоукс, Робин Райт, Эмили Уотсон, Кира Найтли, Сэм Уортингтон, Джейк Джилленхол, Анг Фула Шерпа, Томас М. Райт, Мартин Хендерсон, Том Гудман-Хилл, Шарлотта Бювинг, Пемба Шерпа, Эми Шиндлер, Саймон Харрисон, Крис Райлли, Наоко Мори, Майкл Келли, Тим Дантей

    Сюжет фильма

    Эверест — великая неприступная гора, покорить вершину которой мечтают многие профессиональные скалолазы. Одна из экспедиций на ее вершину закончилась настоящей трагедией, однако этот факт не останавливает отважных альпинистов. Опытный инструктор Роб Холл, собрав группу из лучших альпинистов, собирается совершить восхождение на самую высокую вершину планеты. Все эти люди полны мужества и отваги и они не остановятся ни перед чем, пока не поднимутся на вершину Эвереста. Но даже если эта гора покорится им, смогут ли они вернуться обратно живыми и невредимыми?..

    Снималось в: США, Великобритания, Исландия
    Киностудия: Universal Pictures, Cross Creek Pictures
    Время просмотра: 01: 49: 25
    Перевод текста: Дублированный Чистый звук
    Файл
    Кодек для видео: MPEG-4 AVC
    Качество фильма: WEBRip 720p
    Информация о видео: 2913 Кбит/с, 1280x536
    Информация о звуке: Русский, английский (AC3, 2 ch, 192 Кбит/с)
    Субтитры: Корейские
    Примечание: Присутствуют вшитые не отключаемые корейские субтитры
    Инфо-файл
    Семпл
    Скриншоты


    MediaInfo
    General
    Unique ID : 174386618721786520596392626563368546998 (0x8331A41E73EAA87A98A74E899AC6F2B6)
    Complete name : D: E8ere7t.2015.D..HDTV.720p.mkv
    Format : Matroska
    Format version : Version 4/Version 2
    File size : 2.84 GiB
    Duration : 2h 0mn
    Overall bit rate : 3 364 Kbps
    Movie name : EVO
    Encoded date : UTC 2015-11-04 05: 17: 55
    Writing application : mkvmerge v8.5.0 (;Vanishing Act;) 64bit
    Writing library : libebml v1.3.1 + libmatroska v1.4.2
    DURATION : 02: 00: 54.240000000
    NUMBER_OF_FRAMES : 226695
    NUMBER_OF_BYTES : 174101760
    _STATISTICS_WRITING_APP : mkvmerge v8.5.0 (;Vanishing Act;) 64bit
    _STATISTICS_WRITING_DATE_UT : 2015-11-04 05: 17: 55
    _STATISTICS_TAGS : BPS DURATION NUMBER_OF_FRAMES NUMBER_OF_BYTES
    Video
    ID : 1
    Format : AVC
    Format/Info : Advanced Video Codec
    Format profile : High@L4.1
    Format settings, CABAC : Yes
    Format settings, ReFrames : 4 frames
    Codec ID : V_MPEG4/ISO/AVC
    Duration : 2h 0mn
    Bit rate : 2 913 Kbps
    Nominal bit rate : 3 165 Kbps
    Width : 1 280 pixels
    Height : 536 pixels
    Display aspect ratio : 2.40: 1
    Frame rate mode : Constant
    Frame rate : 29.970 fps
    Color space : YUV
    Chroma subsampling : 4: 2: 0
    Bit depth : 8 bits
    Scan type : Progressive
    Bits/(Pixel*Frame) : 0.142
    Stream size : 2.46 GiB (87%)
    Writing library : x264 core 142 r2479 dd79a61
    Encoding settings : cabac=1/ref=1/deblock=1: 0: 0/analyse=0x3: 0x113/me=hex/subme=2/psy=1/psy_rd=1.00: 0.00/mixed_ref=0/me_range=16/chroma_me=1/trellis=0/8x8dct=1/cqm=0/deadzone=21, 11/fast_pskip=1/chroma_qp_offset=0/threads=12/lookahead_threads=4/sliced_threads=0/nr=0/decimate=1/interlaced=0/bluray_compat=0/constrained_intra=0/bframes=3/b_pyramid=2/b_adapt=1/b_bias=0/direct=1/weightb=1/open_gop=0/weightp=1/keyint=300/keyint_min=30/scenecut=40/intra_refresh=0/rc_lookahead=10/rc=abr/mbtree=1/bitrate=3165/ratetol=1.0/qcomp=0.60/qpmin=0/qpmax=69/qpstep=4/vbv_maxrate=62500/vbv_bufsize=78125/nal_hrd=none/filler=0/ip_ratio=1.40/aq=1: 1.00
    Default : Yes
    Forced : No
    Color range : Limited
    Color primaries : BT.709
    Transfer characteristics : BT.709
    Matrix coefficients : BT.709
    DURATION : 02: 00: 54.147000000
    NUMBER_OF_FRAMES : 217407
    NUMBER_OF_BYTES : 2700021862
    _STATISTICS_WRITING_APP : mkvmerge v8.5.0 (;Vanishing Act;) 64bit
    _STATISTICS_WRITING_DATE_UT : 2015-11-04 05: 17: 55
    _STATISTICS_TAGS : BPS DURATION NUMBER_OF_FRAMES NUMBER_OF_BYTES
    Audio #1
    ID : 2
    Format : AC-3
    Format/Info : Audio Coding 3
    Mode extension : CM (complete main)
    Format settings, Endianness : Big
    Codec ID : A_AC3
    Duration : 2h 0mn
    Bit rate mode : Constant
    Bit rate : 192 Kbps
    Channel(s) : 2 channels
    Channel positions : Front: L R
    Sampling rate : 48.0 KHz
    Compression mode : Lossy
    Delay relative to video : -67ms
    Stream size : 166 MiB (6%)
    Language : Russian
    Default : Yes
    Forced : No
    DURATION : 02: 00: 54.176000000
    NUMBER_OF_FRAMES : 226693
    NUMBER_OF_BYTES : 174100224
    _STATISTICS_WRITING_APP : mkvmerge v8.5.0 (;Vanishing Act;) 64bit
    _STATISTICS_WRITING_DATE_UT : 2015-11-04 05: 17: 55
    _STATISTICS_TAGS : BPS DURATION NUMBER_OF_FRAMES NUMBER_OF_BYTES
    Audio #2
    ID : 3
    Format : AC-3
    Format/Info : Audio Coding 3
    Mode extension : CM (complete main)
    Format settings, Endianness : Big
    Codec ID : A_AC3
    Duration : 2h 0mn
    Bit rate mode : Constant
    Bit rate : 192 Kbps
    Channel(s) : 2 channels
    Channel positions : Front: L R
    Sampling rate : 48.0 KHz
    Compression mode : Lossy
    Delay relative to video : -5ms
    Stream size : 166 MiB (6%)
    Title : Stereo
    Language : English
    Default : No
    Forced : No

    Релиз подготовил:

    Онлайн видео Эверест


    Размер скачиваемого торрента: 2.84 GB (3050350962 Bytes)

    Эверест/Everest (2015) WEBRip 720p от Электричка | Чистый звук
    загрузка...
    Рейтинг →
     (голосов: 1, оценка 5/5, голосовать можно 1 раз )

    Другие торренты по теме:

  • Эверест / Everest (2015) HD 1080p | Трейлер
  • Эверест / Everest (2015) WEBRip | Звук с TS
  • Эверест / Everest (2015) WEB-DLRip | iTunes
  • Эверест / Everest (2015) WEB-DLRip от Scarabey | iTunes
  • Эверест / Everest (2015) BDRip 1080p | Лицензия
  • Эверест / Everest (2015) BDRip 720p от Scarabey | Лицензия
  • Эверест / Everest (2015) BDRip 1080p от Ash61 | 3D-Video | halfOU


    • Комментарии (0):

      Информация

      Информация

        Посетители, находящиеся в группе Гости, не могут оставлять комментарии в данной новости.

        ↓ Меню



        ↓ Опрос

        А Вы добавили сайт в закладки?
        Да
        Не


        Top 10 за месяц (Фильмы)