.
Авторизация | Регистрация
» » Обещать - не значит жениться / Hes Just Not That Into You (2009) BDRip-AVC | D скачать торрент бесплатно




    Обещать - не значит жениться / Hes Just Not That Into You (2009) BDRip-AVC | D скачать торрент бесплатно

    Опубликовал: Админ | Дата: 7-11-2015, 05:01 | Просмотров: 107



    Детально о кино
    Русское название: Обещать - не значит жениться
    Русское название в мировом прокате: He;s Just Not That Into You
    Создали в: 2009
    Категория жанра: драма, мелодрама, комедия
    Главный режиссер: Кен Квопис /Ken Kwapis/

    Актеры
    Брэдли Купер /Bradley Cooper/, Дженнифер Энистон /Jennifer Aniston/, Бен Аффлек /Ben Affleck/, Дженнифер Коннелли /Jennifer Connelly/, Скарлетт Йоханссон /Scarlett Johansson/, Дрю Бэрримор /Drew Barrymore/, Джастин Лонг /Justin Long/...

    Сюжет фильма

    Фильм, события которого разворачиваются в Балтиморе, повествует о непростых отношениях мужчины и женщины, которые не всегда верно истолковывают намерения друг друга. Привлекательный мужчина не спешит расстаться со своим статусом холостяка, чем вызывает бурную реакцию своей влюбленной подружки.

    Снималось в: США, Германия, Нидерланды
    Время просмотра: 02: 09: 21
    Перевод текста: Русский дублированный перевод
    Файл
    Кодек для видео: AVC
    Качество фильма: BDRip-AVC
    Информация о видео: 1158 kbps; 1008x420; 23.976 fps
    Информация о звуке: AC3 Dolby Digital; 448.00 kbps; 6 Ch

    M/I
    General
    Unique ID : 270021840752336121459627966406442267904 (0xCB24509B9AF57BF03C2240E2C4CAB500)
    Complete name : D: Обещать – не значит жениться.(2009).BDRIP_AVC.-=DoMiNo=-.mkv
    Format : Matroska
    Format version : Version 4/Version 2
    File size : 1.45 GiB
    Duration : 2h 9mn
    Overall bit rate : 1 609 Kbps
    Movie name : Обещать – не значит жениться
    Writing application : XviD4PSP 7.0.177
    Writing library : Lavf56.25.101
    ORIGINAL_TITLE : He;s Just Not That Into You
    DATE : 2008
    GENRE : драма, мелодрама, комедия
    ENCODING_INFO : MATROSKA, WEBM MKV/VC1 X264 VBR-2P 1158kbps Custom/AC3 COPY
    SYNOPSIS : Фильм, события которого разворачиваются в Балтиморе, повествует о непростых отношениях мужчины и женщины, которые не всегда верно истолковывают намерения друг друга. Привлекательный мужчина не спешит расстаться со своим статусом холостяка, чем вызывает бурную реакцию своей влюбленной подружки.
    ITUNEXTC : mpaa|PG-13|300|
    ACTORS : Бен Аффлек, Дженнифер Энистон, Дженнифер Коннелли, Брэдли Купер, Скарлетт Йоханссон, Джиннифер Гудвин, Джастин Лонг, Дрю Бэрримор, Кевин Коннолли, Крис Кристофферсон, Василий Дахненко, Людмила Шувалова, Рамиля Искандер, Алексей Иващенко, Татьяна Шитова, показать всех
    DIRECTOR : Кен Куопис
    PRODUCER : Нэнси Джавонен, Дрю Бэрримор, Майкл Бегг
    WRITER : Эбби Кон, Марк Силверштейн, Грег Берендт
    COUNTRY : США, Германия, Нидерланды
    RATING : 7.124
    IMDB_RATING : 6.40
    Language : und
    FILENAME : cover.png
    Attachements : cover.png
    Video
    ID : 1
    Format : AVC
    Format/Info : Advanced Video Codec
    Format profile : High@L4.1
    Format settings, CABAC : Yes
    Format settings, ReFrames : 12 frames
    Codec ID : V_MPEG4/ISO/AVC
    Duration : 2h 9mn
    Bit rate : 1 158 Kbps
    Width : 1 008 pixels
    Height : 420 pixels
    Display aspect ratio : 2.40: 1
    Frame rate mode : Constant
    Frame rate : 23.976 fps
    Color space : YUV
    Chroma subsampling : 4: 2: 0
    Bit depth : 8 bits
    Scan type : Progressive
    Bits/(Pixel*Frame) : 0.114
    Stream size : 1.02 GiB (70%)
    Writing library : x264 core 148 r2597M e86f3a1
    Encoding settings : cabac=1/ref=12/deblock=1: -3: -3/analyse=0x3: 0x133/me=umh/subme=11/psy=1/psy_rd=1.00: 0.10/mixed_ref=1/me_range=32/chroma_me=1/trellis=2/8x8dct=1/cqm=0/deadzone=21, 11/fast_pskip=0/chroma_qp_offset=-3/threads=5/lookahead_threads=1/sliced_threads=0/nr=0/decimate=1/interlaced=0/bluray_compat=0/constrained_intra=0/bframes=11/b_pyramid=2/b_adapt=2/b_bias=0/direct=3/weightb=1/open_gop=0/weightp=2/keyint=230/keyint_min=23/scenecut=40/intra_refresh=0/rc=2pass/mbtree=0/bitrate=1158/ratetol=1.0/qcomp=0.60/qpmin=0/qpmax=69/qpstep=4/cplxblur=20.0/qblur=0.5/ip_ratio=1.40/pb_ratio=1.30/aq=1: 1.00
    Language : English
    Default : Yes
    Forced : No
    Audio
    ID : 2
    Format : AC-3
    Format/Info : Audio Coding 3
    Mode extension : CM (complete main)
    Format settings, Endianness : Big
    Codec ID : A_AC3
    Duration : 2h 9mn
    Bit rate mode : Constant
    Bit rate : 448 Kbps
    Channel(s) : 6 channels
    Channel positions : Front: L C R, Side: L R, LFE
    Sampling rate : 48.0 KHz
    Bit depth : 32 bits
    Compression mode : Lossy
    Stream size : 415 MiB (28%)
    Title : AC3 5.1 448 kbps
    Language : Russian
    Default : Yes
    Forced : No


    Онлайн видео Обещать - не значит жениться


    Размер скачиваемого торрента: 1.45 GB (1561495702 Bytes)

    Обещать - не значит жениться/Hes Just Not That Into You (2009) BDRip-AVC | D
    загрузка...
    Рейтинг →
     (голосов: 1, оценка 4/5, голосовать можно 1 раз )

    Другие торренты по теме:

  • Обещать - не значит жениться / Hes Just Not That Into You (2009) HDRip от Scarabey | D торрент скачать бесплатно
  • Обещать – не значит жениться / Hes Just Not That Into You (2008) BDRip-AVC | iPad | D скачать через торрент бесплатно


    • Комментарии (0):

      Информация

      Информация

        Посетители, находящиеся в группе Гости, не могут оставлять комментарии в данной новости.

        ↓ Меню



        ↓ Опрос

        А Вы добавили сайт в закладки?
        Да
        Не


        Top 10 за неделю (Фильмы)