.
Авторизация | Регистрация
Хочешь лучшие торренты? Добавь свой email!
Добавить
» » Зона вторжения / Rz-9 (2015) BDRip-AVC | L1 торрент скачать бесплатно




    Зона вторжения / Rz-9 (2015) BDRip-AVC | L1 торрент скачать бесплатно

    Опубликовал: Админ | Дата: 8-11-2015, 05:01 | Просмотров: 155



    Детально о кино
    Русское название: Зона вторжения
    Русское название в мировом прокате: Rz-9
    Создали в: 2015
    Категория жанра: Фантастика, боевик
    Главный режиссер: Иэн Карсон

    Актеры
    Этан Макдауэлл, Морган Редер, Джошуа Марбл, Чарли Жиллетт, Майкл Гир, Джейсон Коллетт, Гоури Хейден, Кристофер Л. Робинсон, Варда Эпплтон, Рэндолл Бэйкон, Кайл Биллингс, Райан Кэмпбелл, Бен Кузенс, Андрей Диккерт

    Сюжет фильма
    В разгар кризиса, вызванного массовыми террористическими атаками Соединенные Штаты объявили военное положение. Приватизированные вооружённые силы и система беспилотных патрулей полностью контролируют граждан и обнаруживают новые террористические угрозы. Паттерсон Эндикот, компьютерный техник и оператор беспилотника попадает под подозрение на почве своих религиозных убеждений, и начинает сомневаться в нравственности своей деятельности. Его самого и его сестру Саманту преследуют суперсолдаты, называющиеся Стиратели, чтобы захватить их живыми или мертвыми.

    Снималось в: США
    Время просмотра: 01: 32: 17
    Перевод текста: Любительский одноголосый datynet
    Файл
    Кодек для видео: MPEG-4 AVC (MKV)
    Качество фильма: BDRip-AVC
    Информация о видео: AVC, 2500 Kbps, 1024x432
    Информация о звуке: Русский, английский: AC3, 6 ch, 448 Кбит/с
    Субтитры: Hемецкие

    MediaInfo:

    General
    Unique ID : 188582577151401920938999073768009541743 (0x8DDFAEE8543D3DE5879803442306A86F)
    Complete name : D: ДИСК1.ФИЛЬМЫЗона вторжения Rz-9 (2015)RZ-9.2015.BDRip-AVC.mkv
    Format : Matroska
    Format version : Version 4/Version 2
    File size : 2.19 GiB
    Duration : 1h 32mn
    Overall bit rate : 3 397 Kbps
    Movie name : Release by arhangelvamo
    Encoded date : UTC 2015-11-06 06: 57: 37
    Writing application : mkvmerge v8.2.0 (;World of Adventure;) 64bit
    Writing library : XviD4PSP 6.0/54.29.105
    DURATION : 01: 27: 59.730000000
    NUMBER_OF_FRAMES : 891
    NUMBER_OF_BYTES : 38427
    _STATISTICS_WRITING_APP : mkvmerge v8.2.0 (;World of Adventure;) 64bit
    _STATISTICS_WRITING_DATE_UTC : 2015-11-07 01: 54: 21
    _STATISTICS_TAGS : BPS DURATION NUMBER_OF_FRAMES NUMBER_OF_BYTES
    Video
    ID : 1
    Format : AVC
    Format/Info : Advanced Video Codec
    Format profile : High@L4.1
    Format settings, CABAC : Yes
    Format settings, ReFrames : 7 frames
    Codec ID : V_MPEG4/ISO/AVC
    Duration : 1h 32mn
    Bit rate : 2 500 Kbps
    Width : 1 024 pixels
    Height : 432 pixels
    Display aspect ratio : 2.35: 1
    Frame rate mode : Constant
    Frame rate : 23.976 fps
    Color space : YUV
    Chroma subsampling : 4: 2: 0
    Bit depth : 8 bits
    Scan type : Progressive
    Bits/(Pixel*Frame) : 0.236
    Stream size : 1.57 GiB (72%)
    Writing library : x264 core 128 r2216M 198a7ea
    Encoding settings : cabac=1/ref=8/deblock=1: -3: -3/analyse=0x3: 0x133/me=umh/subme=8/psy=1/psy_rd=1.00: 0.20/mixed_ref=1/me_range=16/chroma_me=1/trellis=2/8x8dct=1/cqm=0/deadzone=21, 11/fast_pskip=1/chroma_qp_offset=-3/threads=8/lookahead_threads=1/sliced_threads=0/nr=0/decimate=1/interlaced=0/bluray_compat=0/constrained_intra=0/bframes=8/b_pyramid=1/b_adapt=2/b_bias=0/direct=3/weightb=1/open_gop=0/weightp=2/keyint=230/keyint_min=23/scenecut=40/intra_refresh=0/rc_lookahead=40/rc=2pass/mbtree=1/bitrate=2500/ratetol=1.0/qcomp=0.60/qpmin=0/qpmax=69/qpstep=4/cplxblur=20.0/qblur=0.5/ip_ratio=1.40/aq=1: 1.00
    Language : English
    Default : Yes
    Forced : No
    DURATION : 01: 32: 16.406000000
    NUMBER_OF_FRAMES : 132741
    NUMBER_OF_BYTES : 1729600940
    _STATISTICS_WRITING_APP : mkvmerge v8.2.0 (;World of Adventure;) 64bit
    _STATISTICS_WRITING_DATE_UTC : 2015-11-07 01: 54: 21
    _STATISTICS_TAGS : BPS DURATION NUMBER_OF_FRAMES NUMBER_OF_BYTES
    Audio #1
    ID : 2
    Format : AC-3
    Format/Info : Audio Coding 3
    Mode extension : CM (complete main)
    Format settings, Endianness : Big
    Codec ID : A_AC3
    Duration : 1h 32mn
    Bit rate mode : Constant
    Bit rate : 448 Kbps
    Channel(s) : 6 channels
    Channel positions : Front: L C R, Side: L R, LFE
    Sampling rate : 48.0 KHz
    Compression mode : Lossy
    Delay relative to video : 27ms
    Stream size : 296 MiB (13%)
    Title : datynet
    Language : Russian
    Default : Yes
    Forced : No
    DURATION : 01: 32: 16.608000000
    NUMBER_OF_FRAMES : 173019
    NUMBER_OF_BYTES : 310050048
    _STATISTICS_WRITING_APP : mkvmerge v8.2.0 (;World of Adventure;) 64bit
    _STATISTICS_WRITING_DATE_UTC : 2015-11-07 01: 54: 21
    _STATISTICS_TAGS : BPS DURATION NUMBER_OF_FRAMES NUMBER_OF_BYTES
    Audio #2
    ID : 3
    Format : AC-3
    Format/Info : Audio Coding 3
    Mode extension : CM (complete main)
    Format settings, Endianness : Big
    Codec ID : A_AC3
    Duration : 1h 32mn
    Bit rate mode : Constant
    Bit rate : 448 Kbps
    Channel(s) : 6 channels
    Channel positions : Front: L C R, Side: L R, LFE
    Sampling rate : 48.0 KHz
    Compression mode : Lossy
    Delay relative to video : 27ms
    Stream size : 296 MiB (13%)
    Title : original
    Language : English
    Default : No
    Forced : No
    DURATION : 01: 32: 16.608000000
    NUMBER_OF_FRAMES : 173019
    NUMBER_OF_BYTES : 310050048
    _STATISTICS_WRITING_APP : mkvmerge v8.2.0 (;World of Adventure;) 64bit
    _STATISTICS_WRITING_DATE_UTC : 2015-11-07 01: 54: 21
    _STATISTICS_TAGS : BPS DURATION NUMBER_OF_FRAMES NUMBER_OF_BYTES
    Text
    ID : 4
    Format : UTF-8
    Codec ID : S_TEXT/UTF8
    Codec ID/Info : UTF-8 Plain Text
    Language : German
    Default : Yes
    Forced : No
    Скриншоты


    Онлайн видео Зона вторжения


    Размер скачиваемого торрента: 2.19 GB (2351169947 Bytes)

    Зона вторжения/Rz-9 (2015) BDRip-AVC | L1
    загрузка...
    Рейтинг →
     (голосов: 1, оценка 3/5, голосовать можно 1 раз )

    Другие торренты по теме:

  • Преступная зона / Криминальная зона / Crime Zone (1989) DVDRip от olegek70 | P
  • Зона высадки / Drop Zone (1994) HDRip | P2, Р
  • Запретная зона / Chernobyl Diaries (2012) BDRip-AVC | iPad
  • Мертвая Зона / The Dead Zone (2002-2007) DVDRip
  • Ливадный Андрей - Зона смерти. Титановая лоза. Книги 1-3 (2011) MP3
  • Зона. Тюремный роман (2006) 4xDVD-5
  • Ядерная Зона - Дискография (2012) MP3
  • Александр Заборский - Зона молчания (2013) MP3


    • Комментарии (0):

      Информация

      Информация

        Посетители, находящиеся в группе Гости, не могут оставлять комментарии в данной новости.

        ↓ Меню



        ↓ Опрос

        А Вы добавили сайт в закладки?
        Да
        Не


        Top 10 за месяц (Фильмы)