.
Авторизация | Регистрация
» » Агенты А.Н.К.Л. / The Man from U.N.C.L.E. (2015) BDRip 720p от BlueBird | D, A | iTunes скачать торрент бесплатно




    Агенты А.Н.К.Л. / The Man from U.N.C.L.E. (2015) BDRip 720p от BlueBird | D, A | iTunes скачать торрент бесплатно

    Опубликовал: Админ | Дата: 8-11-2015, 05:01 | Просмотров: 118



    Детально о кино
    Русское название: Агенты А.Н.К.Л.
    Русское название в мировом прокате: The Man from U.N.C.L.E.
    Создали в: 2015
    Категория жанра: боевик, комедия, приключения
    Главный режиссер: Гай Ричи

    Актеры
    Генри Кавилл, Арми Хаммер, Алисия Викандер, Элизабет Дебики, Хью Грант, Лука Кальвани, Сильвестр Грот, Джаред Харрис, Кристиан Беркель, Миша Кузнецов

    Сюжет фильма

    Наполеон Соло — агент ЦРУ, на счету которого огромное количество успешно проведенных операций. Он считается одним из лучших секретных агентов во всем мире, и с ним может сравниться только один человек — самый молодой и перспективный агент КГБ, Илья Курякин. Их противостояние переросло в настоящую войну, в которой никто не собирается уступать. Однако обстоятельства складываются так, что непримиримые враги вынуждены стать напарниками. Это происходит после того как спецслужбы двух стран обнаруживают международную преступную организацию, которой удалось создать ядерную бомбу…

    Снималось в: США, Великобритания
    Киностудия: Warner Bros. Pictures
    Время просмотра: 01: 56: 30
    Перевод текста: Профессиональный (дублированный) iTunes + Авторский (одноголосый, закадровый) Дмитрий Есарев
    Релиз:
    Файл
    Тип видео: Matroska
    Информация о видео: 1280x534 at 23.976 fps, x264@L4.1, ~9500 kbps avg
    Информация о звуке#1: Russian : 48 kHz, AC3, 3/2 (L, C, R, l, r) + LFE ch, ~384.00 kbps avg|Дубляж, iTunes|
    Информация о звуке#2: Russian : 48 kHz, AC3, 3/2 (L, C, R, l, r) + LFE ch, ~384.00 kbps avg|Авторский, Д.Есарев|
    Информация о звуке#3: English : 48 kHz, DTS, 3/2 (L, C, R, l, r) + LFE ch, ~1509.00 kbps avg
    Субтитры: Russian (Full, Forced), English (SDH)
    MI
    Общее
    Уникальный идентификатор : 174750306108422886958285566012292639396 (0x8377AF4AA1225663B960C7791E98AAA4)
    Полное имя : The.Man.From.U.N.C.L.E.2015.BDRip.720p.BLUEBIRD.mkv
    Формат : Matroska
    Версия формата : Version 2
    Размер файла : 9, 59 Гбайт
    Продолжительность : 1 ч. 56 м.
    Общий поток : 11, 8 Мбит/сек
    Дата кодирования : UTC 2015-11-07 16: 32: 23
    Программа кодирования : mkvmerge v7.9.0 (;Birds;) 64bit
    Библиотека кодирования : libebml v1.3.1 + libmatroska v1.4.2
    Видео
    Идентификатор : 1
    Формат : AVC
    Формат/Информация : Advanced Video Codec
    Профиль формата : High@L4.1
    Параметр CABAC формата : Да
    Параметр ReFrames формата : 12 кадров
    Идентификатор кодека : V_MPEG4/ISO/AVC
    Продолжительность : 1 ч. 56 м.
    Битрейт : 9500 Кбит/сек
    Ширина : 1280 пикселей
    Высота : 534 пикселя
    Соотношение сторон : 2, 40: 1
    Режим частоты кадров : Постоянный
    Частота кадров : 23, 976 кадра/сек
    Цветовое пространство : YUV
    Субдискретизация насыщенности : 4: 2: 0
    Битовая глубина : 8 бит
    Тип развёртки : Прогрессивная
    Бит/(Пиксели*Кадры) : 0.580
    Размер потока : 7, 54 Гбайт (79%)
    Библиотека кодирования : x264 core 142 r2431+42 c69a006 tMod 8-bit@all X86_64
    Настройки программы : cabac=1/ref=12/deblock=1: -3: -3/analyse=0x3: 0x113/me=umh/subme=11/psy=1/fade_compensate=0.00/psy_rd=1.00: 0.10/mixed_ref=1/me_range=48/chroma_me=1/trellis=2/8x8dct=1/cqm=0/deadzone=21, 11/fast_pskip=0/chroma_qp_offset=-3/threads=36/lookahead_threads=3/sliced_threads=0/nr=0/decimate=0/interlaced=0/bluray_compat=0/constrained_intra=0/fgo=0/bframes=8/b_pyramid=2/b_adapt=2/b_bias=0/direct=3/weightb=1/open_gop=0/weightp=2/keyint=360/keyint_min=2/scenecut=40/intra_refresh=0/rc_lookahead=0/rc=2pass/mbtree=0/bitrate=9500/ratetol=1.0/qcomp=0.60/qpmin=0: 0: 0/qpmax=69: 69: 69/qpstep=4/cplxblur=20.0/qblur=0.5/vbv_maxrate=50000/vbv_bufsize=30000/nal_hrd=none/filler=0/ip_ratio=1.20/pb_ratio=1.15/aq=1: 0.80/aq-sensitivity=10.00/aq-factor=1.00: 1.00: 1.00/aq2=0/aq3=0
    Default : Да
    Forced : Нет
    Аудио #1
    Идентификатор : 2
    Формат : AC-3
    Формат/Информация : Audio Coding 3
    Расширение режима : CM (complete main)
    Параметр Endianness формата : Big
    Идентификатор кодека : A_AC3
    Продолжительность : 1 ч. 56 м.
    Вид битрейта : Постоянный
    Битрейт : 384 Кбит/сек
    Каналы : 6 каналов
    Расположение каналов : Front: L C R, Side: L R, LFE
    Частота : 48, 0 КГц
    Метод сжатия : С потерями
    Размер потока : 320 Мбайт (3%)
    Заголовок : iTunes
    Язык : Russian
    Default : Да
    Forced : Нет
    Аудио #2
    Идентификатор : 3
    Формат : AC-3
    Формат/Информация : Audio Coding 3
    Расширение режима : CM (complete main)
    Параметр Endianness формата : Big
    Идентификатор кодека : A_AC3
    Продолжительность : 1 ч. 56 м.
    Вид битрейта : Постоянный
    Битрейт : 384 Кбит/сек
    Каналы : 6 каналов
    Расположение каналов : Front: L C R, Side: L R, LFE
    Частота : 48, 0 КГц
    Метод сжатия : С потерями
    Размер потока : 320 Мбайт (3%)
    Заголовок : Д. Есарев
    Язык : Russian
    Default : Нет
    Forced : Нет
    Аудио #3
    Идентификатор : 4
    Формат : DTS
    Формат/Информация : Digital Theater Systems
    Режим : 16
    Параметр Endianness формата : Big
    Идентификатор кодека : A_DTS
    Продолжительность : 1 ч. 56 м.
    Вид битрейта : Постоянный
    Битрейт : 1509 Кбит/сек
    Каналы : 6 каналов
    Расположение каналов : Front: L C R, Side: L R, LFE
    Частота : 48, 0 КГц
    Битовая глубина : 24 бит
    Метод сжатия : С потерями
    Размер потока : 1, 23 Гбайт (13%)
    Язык : English
    Default : Нет
    Forced : Нет
    Текст #1
    Идентификатор : 5
    Формат : UTF-8
    Идентификатор кодека : S_TEXT/UTF8
    Идентификатор кодека/Информация : UTF-8 Plain Text
    Заголовок : Forced
    Язык : Russian
    Default : Да
    Forced : Нет
    Текст #2
    Идентификатор : 6
    Формат : UTF-8
    Идентификатор кодека : S_TEXT/UTF8
    Идентификатор кодека/Информация : UTF-8 Plain Text
    Язык : Russian
    Default : Нет
    Forced : Нет
    Текст #3
    Идентификатор : 7
    Формат : UTF-8
    Идентификатор кодека : S_TEXT/UTF8
    Идентификатор кодека/Информация : UTF-8 Plain Text
    Заголовок : SDH
    Язык : English
    Default : Нет
    Forced : Нет
    Меню
    00: 00: 00.000 : en: 00: 00: 00.000
    00: 15: 19.085 : en: 00: 15: 19.085
    00: 23: 11.682 : en: 00: 23: 11.682
    00: 32: 09.302 : en: 00: 32: 09.302
    00: 40: 36.059 : en: 00: 40: 36.059
    00: 49: 07.570 : en: 00: 49: 07.570
    00: 59: 23.560 : en: 00: 59: 23.560
    01: 08: 52.837 : en: 01: 08: 52.837
    01: 20: 28.115 : en: 01: 20: 28.115
    01: 29: 47.674 : en: 01: 29: 47.674
    01: 43: 21.362 : en: 01: 43: 21.362
    01: 49: 23.432 : en: 01: 49: 23.432
    Скриншоты



    Онлайн видео Агенты А.Н.К.Л.


    Размер скачиваемого торрента: 9.59 GB (10295505480 Bytes)

    Агенты А.Н.К.Л./The Man from U.N.C.L.E. (2015) BDRip 720p от BlueBird | D, A | iTunes
    загрузка...
    Рейтинг →
     (голосов: 1, оценка 4/5, голосовать можно 1 раз )

    Другие торренты по теме:



      Комментарии (0):

      Информация

      Информация

        Посетители, находящиеся в группе Гости, не могут оставлять комментарии в данной новости.

        ↓ Меню



        ↓ Опрос

        А Вы добавили сайт в закладки?
        Да
        Не


        Top 10 за неделю (Фильмы)