.
Авторизация | Регистрация
» » Бумажные города / Paper Towns (2015) BDRip 720p от BlueBird | Лицензия скачать торрент бесплатно




    Бумажные города / Paper Towns (2015) BDRip 720p от BlueBird | Лицензия скачать торрент бесплатно

    Опубликовал: Админ | Дата: 9-11-2015, 05:01 | Просмотров: 89



    Детально о кино
    Русское название: Бумажные города
    Русское название в мировом прокате: Paper Towns
    Создали в: 2015
    Категория жанра: мелодрама, детектив, комедия
    Главный режиссер: Джейк Шрейер

    Актеры
    Нат Вулф, Кара Делевинь, Остин Абрамс, Джастис Смит, Холстон Сейдж, Жасмин Сабино, Кара Буоно, Джозиа Серио, Ханна Аллигуд, Мэг Кросби

    Сюжет фильма

    Выпускник школы Кью Джейкобсен с детских лет тайно влюблен в свою прекрасную и дерзкую соседку Марго Рот Шпигельманн. Поэтому, когда однажды ночью она приглашает его принять участие в карательной операции против ее обидчиков, он соглашается. Но, придя в школу после их ночного приключения, Кью узнает, что Марго исчезла… оставив для него лишь таинственные послания, которые он должен разгадать, чтобы найти девушку.
    Снималось в: США
    Киностудия: Fox 2000 Pictures, Temple Hill Entertainment
    Время просмотра: 01: 49: 05
    Перевод текста: Профессиональный (дублированный) Blu-ray EUR
    Релиз:
    Файл
    Тип видео: Matroska
    Информация о видео: 1280x534 at 23.976 fps, x264@L4.1, ~4680 kbps avg
    Информация о звуке#1: Russian: 48 kHz, DTS, 3/2 (L, C, R, l, r) + LFE ch, ~768.00 kbps avg |Дубляж, Blu-ray EUR|
    Информация о звуке#2: Ukrainian: 48 kHz, AC3, 3/2 (L, C, R, l, r) + LFE ch, ~448.00 kbps avg |Дубляж, Blu-ray EUR|
    Информация о звуке#3: English: 48 kHz, DTS, 3/2 (L, C, R, l, r) + LFE ch, ~1509.00 kbps avg
    Субтитры: Russian (Full, Forced), Ukrainian (Full), English
    MI
    Общее
    Уникальный идентификатор : 237264336016983344914341346458628453070 (0xB27F72EE313BAB729A07D3F22CEAF2CE)
    Полное имя : Paper.Towns.2015.BDRip.720p.BLUEBIRD.mkv
    Формат : Matroska
    Версия формата : Version 2
    Размер файла : 5, 65 Гбайт
    Продолжительность : 1 ч. 49 м.
    Общий поток : 7408 Кбит/сек
    Название фильма : BLUEBIRD
    Дата кодирования : UTC 2015-11-08 11: 50: 17
    Программа кодирования : mkvmerge v7.9.0 (;Birds;) 64bit
    Библиотека кодирования : libebml v1.3.1 + libmatroska v1.4.2
    Видео
    Идентификатор : 1
    Формат : AVC
    Формат/Информация : Advanced Video Codec
    Профиль формата : High@L4.1
    Параметр CABAC формата : Да
    Параметр ReFrames формата : 12 кадров
    Идентификатор кодека : V_MPEG4/ISO/AVC
    Продолжительность : 1 ч. 49 м.
    Битрейт : 4680 Кбит/сек
    Ширина : 1280 пикселей
    Высота : 534 пикселя
    Соотношение сторон : 2, 40: 1
    Режим частоты кадров : Постоянный
    Частота кадров : 23, 976 кадра/сек
    Цветовое пространство : YUV
    Субдискретизация насыщенности : 4: 2: 0
    Битовая глубина : 8 бит
    Тип развёртки : Прогрессивная
    Бит/(Пиксели*Кадры) : 0.286
    Размер потока : 3, 46 Гбайт (61%)
    Заголовок : BLUEBIRD
    Библиотека кодирования : x264 core 148 r2597 e86f3a1
    Настройки программы : cabac=1/ref=12/deblock=1: -3: -3/analyse=0x3: 0x113/me=umh/subme=11/psy=1/psy_rd=1.05: 0.00/mixed_ref=1/me_range=32/chroma_me=1/trellis=2/8x8dct=1/cqm=0/deadzone=21, 11/fast_pskip=0/chroma_qp_offset=-2/threads=12/lookahead_threads=2/sliced_threads=0/nr=0/decimate=0/interlaced=0/bluray_compat=0/constrained_intra=0/bframes=9/b_pyramid=2/b_adapt=2/b_bias=0/direct=3/weightb=1/open_gop=1/weightp=2/keyint=240/keyint_min=23/scenecut=40/intra_refresh=0/rc_lookahead=120/rc=2pass/mbtree=1/bitrate=4680/ratetol=1.0/qcomp=0.60/qpmin=0/qpmax=69/qpstep=4/cplxblur=20.0/qblur=0.5/vbv_maxrate=50000/vbv_bufsize=62500/nal_hrd=none/filler=0/ip_ratio=1.40/aq=3: 0.90
    Язык : English
    Default : Да
    Forced : Нет
    Аудио #1
    Идентификатор : 2
    Формат : DTS
    Формат/Информация : Digital Theater Systems
    Режим : 16
    Параметр Endianness формата : Big
    Идентификатор кодека : A_DTS
    Продолжительность : 1 ч. 49 м.
    Вид битрейта : Постоянный
    Битрейт : 768 Кбит/сек
    Каналы : 6 каналов
    Расположение каналов : Front: L C R, Side: L R, LFE
    Частота : 48, 0 КГц
    Битовая глубина : 24 бит
    Метод сжатия : С потерями
    Размер потока : 599 Мбайт (10%)
    Заголовок : BD EUR
    Язык : Russian
    Default : Да
    Forced : Нет
    Аудио #2
    Идентификатор : 3
    Формат : AC-3
    Формат/Информация : Audio Coding 3
    Расширение режима : CM (complete main)
    Параметр Endianness формата : Big
    Идентификатор кодека : A_AC3
    Продолжительность : 1 ч. 49 м.
    Вид битрейта : Постоянный
    Битрейт : 448 Кбит/сек
    Каналы : 6 каналов
    Расположение каналов : Front: L C R, Side: L R, LFE
    Частота : 48, 0 КГц
    Метод сжатия : С потерями
    Размер потока : 350 Мбайт (6%)
    Заголовок : BD EUR
    Язык : Ukrainian
    Default : Нет
    Forced : Нет
    Аудио #3
    Идентификатор : 4
    Формат : DTS
    Формат/Информация : Digital Theater Systems
    Режим : 16
    Параметр Endianness формата : Big
    Идентификатор кодека : A_DTS
    Продолжительность : 1 ч. 49 м.
    Вид битрейта : Постоянный
    Битрейт : 1509 Кбит/сек
    Каналы : 6 каналов
    Расположение каналов : Front: L C R, Side: L R, LFE
    Частота : 48, 0 КГц
    Битовая глубина : 24 бит
    Метод сжатия : С потерями
    Размер потока : 1, 15 Гбайт (20%)
    Заголовок : English DTS Core 5.1 @1509 Kbps
    Язык : English
    Default : Нет
    Forced : Нет
    Текст #1
    Идентификатор : 5
    Формат : UTF-8
    Идентификатор кодека : S_TEXT/UTF8
    Идентификатор кодека/Информация : UTF-8 Plain Text
    Заголовок : Forced
    Язык : Russian
    Default : Да
    Forced : Нет
    Текст #2
    Идентификатор : 6
    Формат : UTF-8
    Идентификатор кодека : S_TEXT/UTF8
    Идентификатор кодека/Информация : UTF-8 Plain Text
    Заголовок : Full
    Язык : Russian
    Default : Нет
    Forced : Нет
    Текст #3
    Идентификатор : 7
    Формат : UTF-8
    Идентификатор кодека : S_TEXT/UTF8
    Идентификатор кодека/Информация : UTF-8 Plain Text
    Заголовок : Full
    Язык : Ukrainian
    Default : Нет
    Forced : Нет
    Текст #4
    Идентификатор : 8
    Формат : UTF-8
    Идентификатор кодека : S_TEXT/UTF8
    Идентификатор кодека/Информация : UTF-8 Plain Text
    Язык : English
    Default : Нет
    Forced : Нет
    Меню
    00: 00: 00.000 : en: Chapter 01
    00: 03: 59.239 : en: Chapter 03
    00: 06: 03.196 : en: Chapter 05
    00: 09: 06.629 : en: Chapter 07
    00: 11: 11.379 : en: Chapter 09
    00: 13: 35.064 : en: Chapter 11
    00: 18: 08.212 : en: Chapter 13
    00: 22: 26.011 : en: Chapter 15
    00: 27: 34.527 : en: Chapter 17
    00: 31: 18.209 : en: Chapter 19
    00: 33: 18.746 : en: Chapter 21
    00: 37: 51.310 : en: Chapter 23
    00: 40: 43.983 : en: Chapter 25
    00: 43: 56.550 : en: Chapter 27
    00: 48: 08.802 : en: Chapter 29
    00: 50: 20.100 : en: Chapter 31
    00: 54: 39.192 : en: Chapter 33
    00: 59: 02.705 : en: Chapter 35
    01: 02: 55.021 : en: Chapter 37
    01: 06: 57.930 : en: Chapter 39
    01: 13: 01.085 : en: Chapter 41
    01: 16: 49.479 : en: Chapter 43
    01: 21: 41.521 : en: Chapter 45
    01: 26: 22.093 : en: Chapter 47
    01: 33: 31.147 : en: Chapter 49
    01: 36: 36.499 : en: Chapter 51
    01: 39: 32.967 : en: Chapter 53
    01: 42: 31.395 : en: Chapter 55
    01: 49: 05.288 : en: Chapter 57
    Скриншоты


    Онлайн видео Бумажные города


    Размер скачиваемого торрента: 5.65 GB (6061409756 Bytes)

    Бумажные города/Paper Towns (2015) BDRip 720p от BlueBird | Лицензия
    загрузка...
    Рейтинг →
     (голосов: 1, оценка 5/5, голосовать можно 1 раз )

    Другие торренты по теме:

  • Бумажные города / Paper Towns (2015) WEB-DLRip | Чистый звук скачать торрент бесплатно
  • Бумажные города / Paper Towns (2015) BDRip 720p от Scarabey | iTunes скачать торрент бесплатно
  • Бумажные города / Paper Towns / 2015 / ДБ / Blu-Ray Remux (1080p) скачать торрент бесплатно
  • Бумажные города / Paper Towns (2015) HDRip от ExKinoRay | Лицензия скачать торрент бесплатно
  • Бумажные города / Paper Towns (2015) BDRip 1080p от NNNB скачать торрент бесплатно


    • Комментарии (0):

      Информация

      Информация

        Посетители, находящиеся в группе Гости, не могут оставлять комментарии в данной новости.

        ↓ Меню



        ↓ Опрос

        А Вы добавили сайт в закладки?
        Да
        Не


        Top 10 за неделю (Фильмы)