.
Авторизация | Регистрация
» » Партизан / Partisan (2015) BDRip 1080p | L1 скачать торрент бесплатно




    Партизан / Partisan (2015) BDRip 1080p | L1 скачать торрент бесплатно

    Опубликовал: Админ | Дата: 10-11-2015, 05:01 | Просмотров: 73



    Детально о кино
    Русское название: Партизан
    Русское название в мировом прокате: Partisan
    Создали в: 2015
    Категория жанра: триллер, драма
    Главный режиссер: Эриель Клейман

    Актеры
    Венсан Кассель, Найджел Барбер, Jeremy Chabriel, Florence Mezzara, Тимоти Стайлз, Sapidah Kian, Сосина Вогаху, Natalia Gorbacheva, Katalin Hegedus, Csenge Birloni

    Сюжет фильма
    Речь в фильме пойдет о деспотичном отце семейства, который растит своих детей в изоляции от окружающего мира и прививает им человеконенавистническое восприятие общества. Повествование будет вестись от имени 11-летнего мальчика, осуждающего радикальные взгляды на жизнь своего отца.

    Снималось в: Австралия/Animal Kingdom, Warp Films Australia
    Время просмотра: 01: 38: 03
    Перевод текста: Любительский одноголосный Райм Закиров
    Файл
    Кодек для видео: AVC
    Качество фильма: BDRip 1080p
    Информация о видео: AVC, 1920x800 (2.40: 1), 8067 kbps, 23, 976 fps, 0, 219 bpp
    Информация о звуке 1: русский/AC3/5.1/48 kHz/448 kbps/16 bit |VO, Р. Закиров|
    Информация о звуке 2: английский/DTS/5.1/48 kHz/1509 kbps/24 bit
    Семпл
    МИ
    Общее
    Уникальный идентификатор : 174035463736434595517775002558487235013 (0x82EE02D76B3E3409BEA92C4BB37A89C5)
    Полное имя : H: Partisan.2015.BDRip.1080p.mkv
    Формат : Matroska
    Версия формата : Version 4/Version 2
    Размер файла : 6, 87 Гбайт
    Длительность : 1 ч. 38 м.
    Общий поток : 10, 0 Мбит/сек
    Дата кодирования : UTC 2015-11-09 09: 47: 01
    Программа кодирования : mkvmerge v8.5.2 (;Crosses;) 64bit
    Библиотека кодирования : libebml v1.3.3 + libmatroska v1.4.4
    Длительность : 01: 38: 02.016000000
    NUMBER_OF_FRAMES : 183813
    NUMBER_OF_BYTES : 329392896
    _STATISTICS_WRITING_APP : mkvmerge v8.5.2 (;Crosses;) 64bit
    _STATISTICS_WRITING_DATE_UTC : 2015-11-09 09: 47: 01
    _STATISTICS_TAGS : BPS Длительность NUMBER_OF_FRAMES NUMBER_OF_BYTES
    Видео
    Идентификатор : 1
    Формат : AVC
    Формат/Информация : Advanced Video Кодек
    Профиль формата : High@L4.1
    Параметр CABAC формата : Да
    Параметр ReFrames формата : 5 кадров
    Идентификатор кодека : V_MPEG4/ISO/AVC
    Длительность : 1 ч. 38 м.
    Битрейт : 8067 Кбит/сек
    Ширина : 1920 пикселей
    Высота : 800 пикселей
    Соотношение сторон : 2, 40: 1
    Режим частоты кадров : Постоянный
    Частота кадров : 23, 976 кадра/сек
    Цветовое пространство : YUV
    Субдискретизация насыщенности : 4: 2: 0
    Битовая глубина : 8 бит
    Тип развёртки : Прогрессивная
    Бит/(Пиксели*Кадры) : 0.219
    Размер потока : 5, 39 Гбайт (78%)
    Библиотека кодирования : x264 core 148 r2638 7599210
    Настройки программы : cabac=1/ref=5/deblock=1: -3: -3/analyse=0x3: 0x113/me=umh/subme=8/psy=1/psy_rd=1.00: 0.00/mixed_ref=1/me_range=16/chroma_me=1/trellis=1/8x8dct=1/cqm=0/deadzone=21, 11/fast_pskip=1/chroma_qp_offset=-2/threads=18/lookahead_threads=3/sliced_threads=0/nr=0/decimate=1/interlaced=0/bluray_compat=0/constrained_intra=0/bframes=3/b_pyramid=2/b_adapt=2/b_bias=0/direct=3/weightb=1/open_gop=0/weightp=2/keyint=240/keyint_min=24/scenecut=40/intra_refresh=0/rc_lookahead=50/rc=2pass/mbtree=1/bitrate=8067/ratetol=1.0/qcomp=0.60/qpmin=0/qpmax=69/qpstep=4/cplxblur=20.0/qblur=0.5/ip_ratio=1.40/aq=1: 1.00
    Язык : English
    Default : Да
    Forced : Нет
    Длительность : 01: 38: 02.377000000
    NUMBER_OF_FRAMES : 141036
    NUMBER_OF_BYTES : 5931503497
    _STATISTICS_WRITING_APP : mkvmerge v8.5.2 (;Crosses;) 64bit
    _STATISTICS_WRITING_DATE_UTC : 2015-11-09 09: 47: 01
    _STATISTICS_TAGS : BPS Длительность NUMBER_OF_FRAMES NUMBER_OF_BYTES
    Аудио #1
    Идентификатор : 2
    Формат : AC-3
    Формат/Информация : Audio Coding 3
    Расширение режима : CM (complete main)
    Параметр Endianness формата : Big
    Идентификатор кодека : A_AC3
    Длительность : 1 ч. 38 м.
    Вид битрейта : Постоянный
    Битрейт : 448 Кбит/сек
    Каналы : 6 каналов
    Расположение каналов : Front: L C R, Side: L R, LFE
    Частота : 48, 0 КГц
    Метод сжатия : С потерями
    Задержка видео : 4 мс.
    Размер потока : 314 Мбайт (4%)
    Заголовок : VO, RAIM
    Язык : Russian
    Default : Да
    Forced : Нет
    Длительность : 01: 38: 02.091000000
    NUMBER_OF_FRAMES : 551446
    NUMBER_OF_BYTES : 1109509352
    _STATISTICS_WRITING_APP : mkvmerge v8.5.2 (;Crosses;) 64bit
    _STATISTICS_WRITING_DATE_UTC : 2015-11-09 09: 47: 01
    _STATISTICS_TAGS : BPS Длительность NUMBER_OF_FRAMES NUMBER_OF_BYTES
    Аудио #2
    Идентификатор : 3
    Формат : DTS
    Формат/Информация : Digital Theater Systems
    Режим : 16
    Параметр Endianness формата : Big
    Идентификатор кодека : A_DTS
    Длительность : 1 ч. 38 м.
    Вид битрейта : Постоянный
    Битрейт : 1509 Кбит/сек
    Каналы : 6 каналов
    Расположение каналов : Front: L C R, Side: L R, LFE
    Частота : 48, 0 КГц
    Битовая глубина : 24 бит
    Метод сжатия : С потерями
    Размер потока : 1, 03 Гбайт (15%)
    Заголовок : Оригинал
    Язык : English
    Default : Нет
    Forced : Нет
    Меню
    00: 00: 00.000 : en: 00: 00: 00.000
    00: 11: 24.517 : en: 00: 11: 24.517
    00: 21: 43.177 : en: 00: 21: 43.177
    00: 29: 45.575 : en: 00: 29: 45.575
    00: 42: 04.897 : en: 00: 42: 04.897
    00: 42: 13.823 : en: 00: 42: 13.823
    01: 03: 05.657 : en: 01: 03: 05.657
    01: 12: 50.908 : en: 01: 12: 50.908
    01: 21: 43.398 : en: 01: 21: 43.398
    01: 32: 28.918 : en: 01: 32: 28.918
    Скриншоты


    Онлайн видео Партизан


    Размер скачиваемого торрента: 6.87 GB (7372365127 Bytes)

    Партизан/Partisan (2015) BDRip 1080p | L1
    загрузка...
    Рейтинг →
     (голосов: 1, оценка 4/5, голосовать можно 1 раз )

    Другие торренты по теме:

  • Футбол. Лига Европы 2015-2016 (Группа L, 3-й тур) Партизан (Сербия) - Атлетик (Испания) / 2015 / РУ / DVB скачать торрент бесплатно
  • Калбазов Константин - Кукловод 2. Партизан (2017) MP3 скачать торрент бесплатно


    • Комментарии (0):

      Информация

      Информация

        Посетители, находящиеся в группе Гости, не могут оставлять комментарии в данной новости.

        ↓ Меню



        ↓ Опрос

        А Вы добавили сайт в закладки?
        Да
        Не


        Top 10 за неделю (Фильмы)