.
Авторизация | Регистрация
» » Посланник смерти / Messenger of Death (1988) HDRip-AVC от NNM-CLUB| P, A скачать торрент бесплатно




    Посланник смерти / Messenger of Death (1988) HDRip-AVC от NNM-CLUB| P, A скачать торрент бесплатно

    Опубликовал: Админ | Дата: 10-11-2015, 05:01 | Просмотров: 130




    Детально о кино
    Русское название: Посланник смерти
    Русское название в мировом прокате: Messenger of Death
    Создали в: 1988
    Категория жанра: Боевик, триллер, криминал
    Главный режиссер: Дж. Ли Томпсон

    Актеры
    Чарльз Бронсон, Триш Ван Девере, Лоуренс Лакинбилл, Дэниэл Бензали, Мэрлин Хэссет, Чарльз Диркоп, Джефф Кори, Джон Айрленд, Пенни Пейсер, Джин Дэвис, Джон Солари, Джон Седар, Том Эверетт, Дункан Гэмблю, Берт Уильямс, Джером Тор, Шерил Уотерс, Мелани Ноубл, Патриция Эллисон, Мария Майензет, Маргарет Хауэлл, Уорнер Лафлин, Кимберли Бек, Беверли Томпсон, Дон Кеннеди, Джон П. МакКарти, Фил Цуккерман, Дэвид Купер, Джеффри Конклин, Уильям Фиппс, Джим Баллок, Саладин Джеймс, Джозеф Даррел, Эрик Фрай

    Сюжет фильма

    Однажды к заброшенному в захолустье, где-то в глубине Америки, дому бесшумно подъехала машина и остановиласть там, где играют дети. Чем-то зловещим и ужасным веяло от ее облика и от человека, который не спеша вылез из нее. И детишки, смутно почувствовав суеверный подсознательный страх, попятились от незнакомца. Но его лица они не запомнят. Выстрелом в упор, по одному на каждого, он прикончит их хладнокровно и без сожаления. И также, не тратя лишних патронов, уничтожит женщин, оставшихся в доме… А спустя некоторое время отважный репортер (Бронсон) начнет собственное расследование о секте мормонов.

    Релиз подготовил: FAGOT100(NNM-CLUB)
    Время просмотра: 01: 31: 41
    Качество фильма видео: HDRip-AVC (Исх. BDRip 1080p)
    Перевод текста: Профессиональный (многоголосый, закадровый) х2, авторский (одноголосый, закадровый)А.Гаврилов
    Язык субтитров: Английский
    Вид субтитров: Вшитые отключаемые
    Информация о видео: AVC, 1024x556 (16: 9), 23.976 fps, 2 549 Kbps (0.187 bit/pixel)
    Информация о звуке #1: AC-3, 48.0 KHz, 6 ch, 384 Kbps, CBR (Russian) - многоголосый
    Информация о звуке #2: AC-3, 48.0 KHz, 2 ch, 192 Kbps, CBR (Russian) - многоголосый (Paramount Channel)
    Информация о звуке #3: AC-3, 48.0 KHz, 2 ch, 192 Kbps, CBR (Russian) - авторский А.Гаврилов
    Информация о звуке #4: AC-3, 48.0 KHz, 2 ch, 192 Kbps, CBR (English) - оригинал
    Скриншоты:

    Mediainfo:

    Формат : Matroska
    Версия формата : Version 2
    Размер файла : 2, 25 Гбайт
    Продолжительность : 1 ч. 31 м.
    Общий поток : 3508 Кбит/сек
    Дата кодирования : UTC 2015-11-09 13: 24: 38
    Программа кодирования : mkvmerge v5.3.0 (;I could have danced;) built on Feb 9 2012 10: 38: 07
    Библиотека кодирования : libebml v1.2.3 + libmatroska v1.3.0
    Attachment : Yes
    Видео
    Идентификатор : 1
    Формат : AVC
    Формат/Информация : Advanced Video Codec
    Профиль формата : High@L4.1
    Параметр CABAC формата : Да
    Параметр ReFrames формата : 9 кадров
    Идентификатор кодека : V_MPEG4/ISO/AVC
    Продолжительность : 1 ч. 31 м.
    Битрейт : 2549 Кбит/сек
    Ширина : 1024 пикселя
    Высота : 556 пикселей
    Соотношение сторон : 1, 85: 1
    Режим частоты кадров : Постоянный
    Частота кадров : 23, 976 кадра/сек
    Цветовое пространство : YUV
    Субдискретизация насыщенности : 4: 2: 0
    Битовая глубина : 8 бит
    Тип развёртки : Прогрессивная
    Бит/(Пиксели*Кадры) : 0.187
    Размер потока : 1, 59 Гбайт (71%)
    Библиотека кодирования : x264 core 146 r2538 121396c
    Настройки программы : cabac=1/ref=9/deblock=1: -3: -3/analyse=0x3: 0x133/me=umh/subme=10/psy=1/psy_rd=1.00: 0.15/mixed_ref=1/me_range=32/chroma_me=1/trellis=2/8x8dct=1/cqm=0/deadzone=21, 11/fast_pskip=0/chroma_qp_offset=-3/threads=12/lookahead_threads=2/sliced_threads=0/nr=0/decimate=0/interlaced=0/bluray_compat=0/constrained_intra=0/bframes=7/b_pyramid=2/b_adapt=2/b_bias=0/direct=3/weightb=1/open_gop=0/weightp=2/keyint=240/keyint_min=23/scenecut=40/intra_refresh=0/rc=2pass/mbtree=0/bitrate=2549/ratetol=1.0/qcomp=0.60/qpmin=0/qpmax=69/qpstep=4/cplxblur=20.0/qblur=0.5/ip_ratio=1.40/pb_ratio=1.30/aq=1: 0.70
    Язык : English
    Default : Да
    Forced : Нет
    Аудио #1
    Идентификатор : 2
    Формат : AC-3
    Формат/Информация : Audio Coding 3
    Расширение режима : CM (complete main)
    Параметр Endianness формата : Big
    Идентификатор кодека : A_AC3
    Продолжительность : 1 ч. 31 м.
    Вид битрейта : Постоянный
    Битрейт : 384 Кбит/сек
    Каналы : 6 каналов
    Расположение каналов : Front: L C R, Side: L R, LFE
    Частота : 48, 0 КГц
    Битовая глубина : 16 бит
    Метод сжатия : С потерями
    Задержка видео : 12 с.
    Размер потока : 252 Мбайт (11%)
    Заголовок : Многоголосый
    Язык : Russian
    Default : Да
    Forced : Нет
    Аудио #2
    Идентификатор : 3
    Формат : AC-3
    Формат/Информация : Audio Coding 3
    Расширение режима : CM (complete main)
    Параметр Endianness формата : Big
    Идентификатор кодека : A_AC3
    Продолжительность : 1 ч. 31 м.
    Вид битрейта : Постоянный
    Битрейт : 192 Кбит/сек
    Каналы : 2 канала
    Расположение каналов : Front: L R
    Частота : 48, 0 КГц
    Битовая глубина : 16 бит
    Метод сжатия : С потерями
    Задержка видео : 12 с.
    Размер потока : 126 Мбайт (5%)
    Заголовок : Многоголосый (Paramount Channel)
    Язык : Russian
    Default : Нет
    Forced : Нет
    Аудио #3
    Идентификатор : 4
    Формат : AC-3
    Формат/Информация : Audio Coding 3
    Расширение режима : CM (complete main)
    Параметр Endianness формата : Big
    Идентификатор кодека : A_AC3
    Продолжительность : 1 ч. 31 м.
    Вид битрейта : Постоянный
    Битрейт : 192 Кбит/сек
    Каналы : 2 канала
    Расположение каналов : Front: L R
    Частота : 48, 0 КГц
    Битовая глубина : 16 бит
    Метод сжатия : С потерями
    Задержка видео : 12 с.
    Размер потока : 126 Мбайт (5%)
    Заголовок : Авторский А.Гаврилов
    Язык : Russian
    Default : Нет
    Forced : Нет
    Аудио #4
    Идентификатор : 5
    Формат : AC-3
    Формат/Информация : Audio Coding 3
    Расширение режима : CM (complete main)
    Параметр Endianness формата : Big
    Идентификатор кодека : A_AC3
    Продолжительность : 1 ч. 31 м.
    Вид битрейта : Постоянный
    Битрейт : 192 Кбит/сек
    Каналы : 2 канала
    Расположение каналов : Front: L R
    Частота : 48, 0 КГц
    Битовая глубина : 16 бит
    Метод сжатия : С потерями
    Размер потока : 126 Мбайт (5%)
    Язык : English
    Default : Нет
    Forced : Нет
    Текст
    Идентификатор : 6
    Формат : UTF-8
    Идентификатор кодека : S_TEXT/UTF8
    Идентификатор кодека/Информация : UTF-8 Plain Text
    Язык : English
    Default : Нет
    Forced : Нет
    Меню
    00: 00: 00.000 : en: 00: 00: 00.000
    00: 00: 10.928 : en: 00: 00: 10.928
    00: 12: 37.298 : en: 00: 12: 37.298
    00: 24: 29.218 : en: 00: 24: 29.218
    00: 35: 38.345 : en: 00: 35: 38.345
    00: 47: 30.931 : en: 00: 47: 30.931
    00: 58: 34.052 : en: 00: 58: 34.052
    01: 08: 18.678 : en: 01: 08: 18.678
    01: 18: 02.303 : en: 01: 18: 02.303
    01: 31: 30.443 : en: 01: 31: 30.443


    Онлайн видео Посланник смерти


    Размер скачиваемого торрента: 2.25 GB (2412031823 Bytes)

    Посланник смерти/Messenger of Death (1988) HDRip-AVC от NNM-CLUB| P, A
    загрузка...
    Рейтинг →
     (голосов: 1, оценка 5/5, голосовать можно 1 раз )

    Другие торренты по теме:

  • Посланник смерти / Messenger of Death / 1988 / АП (Гаврилов) / DVD-5 скачать торрент бесплатно
  • Посланник смерти / Messenger of Death (1988) BDRip 720p от torrentfilm | P, A скачать торрент бесплатно
  • Посланник смерти / Messenger of Death (1988) HDRip | A скачать торрент бесплатно


    • Комментарии (0):

      Информация

      Информация

        Посетители, находящиеся в группе Гости, не могут оставлять комментарии в данной новости.

        ↓ Меню



        ↓ Опрос

        А Вы добавили сайт в закладки?
        Да
        Не


        Top 10 за неделю (Фильмы)