.
Авторизация | Регистрация
Хочешь лучшие торренты? Добавь свой email!
Добавить
» » Джейсон Вурхиз против Майкла Майерса / Jason Voorhees vs. Michael Myers (2015) WEBRip-AVC | Яроцкий торрент скачать бесплатно




    Джейсон Вурхиз против Майкла Майерса / Jason Voorhees vs. Michael Myers (2015) WEBRip-AVC | Яроцкий торрент скачать бесплатно

    Опубликовал: Админ | Дата: 11-11-2015, 05:00 | Просмотров: 122


    Джейсон Вурхиз против Майкла Майерса/Jason Voorhees vs. Michael Myers (2015) WEBRip-AVC

    Создали в: США
    Категория жанра: Короткометражный, Ужасы, Триллер
    Главный режиссер: Трент Дункан
    Актеры: Shelly Gene Latane Alexin, Синтия Боаннон, Шантель Юбанкс, Алисса Фишман, Чейен Хесс, Райан Монньер, Джио Ривера, Кит

    Описание фильма

    Джейсон и Майкл вступают в схватку друг с другом.

    Дата мировой премьеры: 25 июня 2015
    Релиз подготовил: FAGOT100(NNM-CLUB)
    Время просмотра: 00: 09: 08
    Качество фильма видео: WEBRip-AVC
    Перевод текста: Авторский (одноголосый, закадровый) М.Яроцкий
    Субтитры: Отсутствуют
    Информация о видео: AVC, 1024x480 (2.2: 1), 24.000 fps, 2 046 Kbps (0.173 bit/pixel)
    Информация о звуке: AC-3, 48.0 KHz, 2 ch, 224 Kbps, CBR (Russian)
    Mediainfo:

    Формат : Matroska
    Версия формата : Version 2
    Размер файла : 152 Мбайт
    Продолжительность : 9 м. 8 с.
    Общий поток : 2316 Кбит/сек
    Название фильма : Релиз Переулка Переводмана
    Дата кодирования : UTC 2015-11-10 03: 20: 58
    Программа кодирования : mkvmerge v5.3.0 (;I could have danced;) built on Feb 9 2012 10: 38: 07
    Библиотека кодирования : libebml v1.2.3 + libmatroska v1.3.0
    Attachment : Yes
    Видео
    Идентификатор : 1
    Формат : AVC
    Формат/Информация : Advanced Video Codec
    Профиль формата : High@L4.1
    Параметр CABAC формата : Да
    Параметр ReFrames формата : 9 кадров
    Идентификатор кодека : V_MPEG4/ISO/AVC
    Продолжительность : 9 м. 8 с.
    Битрейт : 2046 Кбит/сек
    Ширина : 1024 пикселя
    Высота : 480 пикселей
    Соотношение сторон : 2, 133
    Режим частоты кадров : Постоянный
    Частота кадров : 24, 000 кадра/сек
    Цветовое пространство : YUV
    Субдискретизация насыщенности : 4: 2: 0
    Битовая глубина : 8 бит
    Тип развёртки : Прогрессивная
    Бит/(Пиксели*Кадры) : 0.173
    Размер потока : 134 Мбайт (88%)
    Библиотека кодирования : x264 core 146 r2538 121396c
    Настройки программы : cabac=1/ref=9/deblock=1: -3: -3/analyse=0x3: 0x133/me=umh/subme=10/psy=1/psy_rd=1.00: 0.15/mixed_ref=1/me_range=32/chroma_me=1/trellis=2/8x8dct=1/cqm=0/deadzone=21, 11/fast_pskip=0/chroma_qp_offset=-3/threads=12/lookahead_threads=2/sliced_threads=0/nr=0/decimate=0/interlaced=0/bluray_compat=0/constrained_intra=0/bframes=7/b_pyramid=2/b_adapt=2/b_bias=0/direct=3/weightb=1/open_gop=0/weightp=2/keyint=240/keyint_min=24/scenecut=40/intra_refresh=0/rc=crf/mbtree=0/crf=16.5/qcomp=0.60/qpmin=0/qpmax=69/qpstep=4/ip_ratio=1.40/pb_ratio=1.30/aq=1: 0.90
    Язык : English
    Default : Да
    Forced : Нет
    Аудио
    Идентификатор : 2
    Формат : AC-3
    Формат/Информация : Audio Coding 3
    Расширение режима : CM (complete main)
    Параметр Endianness формата : Big
    Идентификатор кодека : A_AC3
    Продолжительность : 9 м. 8 с.
    Вид битрейта : Постоянный
    Битрейт : 224 Кбит/сек
    Каналы : 2 канала
    Расположение каналов : Front: L R
    Частота : 48, 0 КГц
    Битовая глубина : 16 бит
    Метод сжатия : С потерями
    Размер потока : 14, 7 Мбайт (10%)
    Заголовок : AVO Kyberpunk
    Язык : Russian
    Default : Да
    Forced : Нет

    Скриншоты:


    Онлайн видео Джейсон Вурхиз против Майкла Майерса


    Размер скачиваемого торрента: 151.53 MB (158892230 Bytes)

    Джейсон Вурхиз против Майкла Майерса/Jason Voorhees vs. Michael Myers (2015) WEBRip-AVC | Яроцкий
    загрузка...
    Рейтинг →
     (голосов: 1, оценка 4/5, голосовать можно 1 раз )

    Другие торренты по теме:

  • Джейсон Борн: Квадрология / Jason Bourne: Quadrilogy (2002-2012) BDRip-AVC от potroks | D
  • Джейсон Стэтхем: Фильмография / Jason Statham: Filmography (1998-2012) HDTVRip, BDRip 720p от R.G. GoldenShara
  • Джейсон Борн: Квадрология / Jason Bourne: Quadrilogy (2002-2012) HDRip-AVC | iPhone скачать через торрент бесплатно
  • Джейсон Х / Jason X (2001) DVDRip-AVC | P2
  • Джейсон Х / Jason X (2001) DVDRip | P2
  • Джейсон Борн: Квадрология / Jason Bourne: Quadrilogy (2002-2012) BDRip-AVC от ExKinoRay | D, A
  • Джейсон Борн: Квадрология / Jason Bourne: Quadrilogy (2002-2012) BDRip | D скачать через торрент бесплатно
  • Джейсон Х / Jason X (2001) BDRip | P2 скачать через торрент бесплатно


    • Комментарии (0):

      Информация

      Информация

        Посетители, находящиеся в группе Гости, не могут оставлять комментарии в данной новости.

        ↓ Меню



        ↓ Опрос

        А Вы добавили сайт в закладки?
        Да
        Не


        Top 10 за месяц (Фильмы)