.
Авторизация | Регистрация
» » Аватар / Avatar (2009) BDRip 720p от HQ-ViDEO | Sub | Дополнительные материалы скачать торрент бесплатно


    Аватар / Avatar (2009) BDRip 720p от HQ-ViDEO | Sub | Дополнительные материалы скачать торрент бесплатно

    Опубликовал: Админ | Дата: 24-08-2016, 05:00 | Просмотров: 67


    Аватар/Avatar Бонус-диск (2009) BDRip 720p
    Релиз от HQ-ViDEO

    Детально о кино
    Русское название: Аватар
    Русское название в мировом прокате: Avatar
    Создали в: 2009
    Категория жанра: Фантастика, Боевик, Драма, Приключения
    Главный режиссер: Джеймс Кэмерон /James Cameron/

    Актеры
    Сэм Уортингтон /Sam Worthington/, Зои Салдана /Zoe Saldana/, Сигурни Уивер /Sigourney Weaver/, Стивен Лэнг /Stephen Lang/, Джоэль Мур /Joel Moore/, Джованни Рибизи /Giovanni Ribisi/, Мишель Родригес /Michelle Rodriguez/...

    Описание фильма

    Это дополнительные материалы. Сюжеты, кадры которые не вошли в фильм и другие материалы.
    Снималось в: США , Великобритания
    Время просмотра: 01: 07: 51 Bonus1 - Удалённые сцены/Deleted Scenes
    Время просмотра: 00: 52: 18 Bonus2 - Дополнительные материалы/Additional bonus materials
    Тип перевода: Оригинальное, английское
    Перевод текста: Русские субтитры
    Файл
    Кодек для видео: MKV, H.264
    Качество фильма: BDRip 720p (Source: Blu-ray Disc)
    Информация о видео #1: 4302 kbps; 0.262 bit/pixel; 1280 x 536; 2.35: 1; 23.976 fps
    Информация о видео #2: 5634 kbps; 0.255 bit/pixel; 1280 x 720; 16: 9; 23.976 fps
    Информация о звуке #1: AC3 Dolby Digital; 224.00 kbps, 2 Ch - Deleted Scenes
    Информация о звуке #2: AC3 Dolby Digital; 224.00 kbps, 6 Ch - Additional bonus materials
    Субтитры: Русские (отключаемые), Английские (на речь На;ви, вшитые).
    Субтитры: Русские (Bonus1+Bonus2).СПАСИБО gordin(Отдельно)
    Размер скачиваемого торрента #1: 2.19 GB
    Размер скачиваемого торрента #2: 2.18 GB
    SAMPLE Deleted Scenes/скачать с Яндекс Диск
    SAMPLE Additional bonus materials/скачать с Яндекс Диск
    MediaInfo Deleted Scenes

    Общее
    Полное имя : Avatar.2009.Bonus1.BDRip.720p.h264.AC3.-HQ-ViDEO.mkv
    Формат : Matroska
    Версия формата : Version 2
    Размер файла : 2, 19 Гбайт
    Продолжительность : 1 ч. 7 м.
    Режим общего битрейта : Переменный
    Общий поток : 4617 Кбит/сек
    Название фильма : Avatar (2009) Deleted Scenes
    Дата кодирования : UTC 2016-08-22 16: 42: 58
    Программа кодирования : mkvmerge v5.7.0 (;The Whirlwind;) built on Jul 8 2012 20: 08: 51
    Библиотека кодирования : libebml v1.2.3 + libmatroska v1.3.0
    Видео
    Идентификатор : 1
    Формат : AVC
    Формат/Информация : Advanced Video Codec
    Профиль формата : High@L4.1
    Параметр CABAC формата : Да
    Параметр ReFrames формата : 6 кадров
    Режим смешивания : Header stripping
    Идентификатор кодека : V_MPEG4/ISO/AVC
    Продолжительность : 1 ч. 7 м.
    Вид битрейта : Переменный
    Битрейт : 4301 Кбит/сек
    Максимальный битрейт : 4380 Кбит/сек
    Ширина : 1280 пикселей
    Высота : 536 пикселей
    Соотношение сторон : 2, 40: 1
    Режим частоты кадров : Постоянный
    Частота кадров : 23, 976 кадра/сек
    Цветовое пространство : YUV
    Субдискретизация насыщенности : 4: 2: 0
    Битовая глубина : 8 бит
    Тип развёртки : Прогрессивная
    Бит/(Пиксели*Кадры) : 0.261
    Размер потока : 2, 04 Гбайт (93%)
    Заголовок : Encoded by GYN
    Default : Да
    Forced : Нет
    Аудио
    Идентификатор : 2
    Формат : AC-3
    Формат/Информация : Audio Coding 3
    Расширение режима : CM (complete main)
    Параметр Endianness формата : Big
    Режим смешивания : Header stripping
    Идентификатор кодека : A_AC3
    Продолжительность : 1 ч. 7 м.
    Вид битрейта : Постоянный
    Битрейт : 224 Кбит/сек
    Каналы : 2 канала
    Расположение каналов : Front: L R
    Частота : 48, 0 КГц
    Метод сжатия : С потерями
    Размер потока : 109 Мбайт (5%)
    Заголовок : Original
    Язык : English
    Default : Да
    Forced : Нет
    Текст
    Идентификатор : 3
    Формат : UTF-8
    Идентификатор кодека : S_TEXT/UTF8
    Идентификатор кодека/Информация : UTF-8 Plain Text
    Язык : Russian
    Default : Да
    Forced : Нет

    MediaInfo Additional bonus materials

    Общее
    Полное имя : Avatar.2009.Bonus2.BDRip.720p.h264.AC3.-HQ-ViDEO.mkv
    Формат : Matroska
    Версия формата : Version 2
    Размер файла : 2, 18 Гбайт
    Продолжительность : 1 ч. 5 м.
    Режим общего битрейта : Переменный
    Общий поток : 4787 Кбит/сек
    Название фильма : Avatar (2009) Deleted Scenes
    Дата кодирования : UTC 2016-08-22 16: 51: 40
    Программа кодирования : mkvmerge v5.7.0 (;The Whirlwind;) built on Jul 8 2012 20: 08: 51
    Библиотека кодирования : libebml v1.2.3 + libmatroska v1.3.0
    Видео
    Идентификатор : 1
    Формат : AVC
    Формат/Информация : Advanced Video Codec
    Профиль формата : High@L4.1
    Параметр CABAC формата : Да
    Параметр ReFrames формата : 6 кадров
    Режим смешивания : Header stripping
    Идентификатор кодека : V_MPEG4/ISO/AVC
    Продолжительность : 1 ч. 5 м.
    Вид битрейта : Переменный
    Битрейт : 4468 Кбит/сек
    Максимальный битрейт : 5749 Кбит/сек
    Ширина : 1280 пикселей
    Высота : 720 пикселей
    Соотношение сторон : 16: 9
    Режим частоты кадров : Постоянный
    Частота кадров : 23, 976 кадра/сек
    Цветовое пространство : YUV
    Субдискретизация насыщенности : 4: 2: 0
    Битовая глубина : 8 бит
    Тип развёртки : Прогрессивная
    Бит/(Пиксели*Кадры) : 0.202
    Размер потока : 2, 04 Гбайт (93%)
    Заголовок : Encoded by GYN
    Default : Да
    Forced : Нет
    Аудио
    Идентификатор : 2
    Формат : AC-3
    Формат/Информация : Audio Coding 3
    Расширение режима : CM (complete main)
    Параметр Endianness формата : Big
    Режим смешивания : Header stripping
    Идентификатор кодека : A_AC3
    Продолжительность : 1 ч. 5 м.
    Вид битрейта : Постоянный
    Битрейт : 224 Кбит/сек
    Каналы : 6 каналов
    Расположение каналов : Front: L C R, Side: L R, LFE
    Частота : 48, 0 КГц
    Метод сжатия : С потерями
    Размер потока : 105 Мбайт (5%)
    Заголовок : Original
    Язык : English
    Default : Да
    Forced : Нет
    Текст
    Идентификатор : 3
    Формат : UTF-8
    Идентификатор кодека : S_TEXT/UTF8
    Идентификатор кодека/Информация : UTF-8 Plain Text
    Язык : Russian
    Default : Да
    Forced : Нет







    Релиз подготовил: HQ-ViDEO
    Автор рипа: GYN
    Размер скачиваемого торрента: 4.37 GB (4694610980 Bytes)

    Аватар/Avatar (2009) BDRip 720p от HQ-ViDEO | Sub | Дополнительные материалы
    загрузка...
    Рейтинг →
     (голосов: 1, оценка 5/5, голосовать можно 1 раз )

    Другие торренты по теме:

  • Аватар / Avatar (2009) DVD9 | Extended Collectors Edition торрент скачать бесплатно
  • Аватар / Avatar: Cyber Wars (2004) DVDRip - от NovaLan торрент скачать бесплатно
  • Аватар / Avatar (2009) BDRip 1080p от R.G. HD-Films | 60 fps | D торрент скачать бесплатно
  • Аватар / Avatar (2009) BDRip 720p | JM Records | 60 fps | D | Extended Cut скачать через торрент бесплатно
  • Аватар / Avatar (2009) BDRip | КПК | Extended Collectors Edition скачать торрент бесплатно
  • Аватар / Avatar (2009) BDRip 720p от HQCLUB | Extended Collectors Edition | D, P2, A | Лицензия скачать торрент бесплатно
  • Аватар / Avatar (2009) BDRip-AVC от waPBX | КПК скачать торрент бесплатно
  • Аватар / Avatar (2009) BDRip 1080p от HQCLUB | Extended Collectors Edition | Лицензия скачать торрент бесплатно


    • Комментарии (0):

      Информация

      Информация

        Посетители, находящиеся в группе Гости, не могут оставлять комментарии в данной новости.

        ↓ Меню



        ↓ Опрос

        А Вы добавили сайт в закладки?
        Да
        Не


        Top 10 за неделю (Другое)